Teen Spirit

Ένα φόρουμ αποκλειστικά για νεανικές σειρές στα ελληνικά!


Μη Συνδεδεμενος Παρακαλώ συνδεθείτε ή εγγραφείτε

[MEGA] Victorious DTVRip (2010)

Μετάβαση στη σελίδα : Επιστροφή  1, 2, 3

Επισκόπηση προηγούμενης Θ.Ενότητας Επισκόπηση επόμενης Θ.Ενότητας Πήγαινε κάτω Μήνυμα [Σελίδα 3 από 3]

avatar

Tsaklas


Admin
Admin
http://teenspirit.forumgreek.com

+ Ολοκληρώθηκε το τόπικ με τα S04E03-13! Δείτε στον φάκελο!

Με πρωταγωνίστρια το super ταλέντο που ακούει στο όνομα Victoria Justice, η σειρά του Nickelodeon «Victorious» ακολουθεί τη 16χρονη Tori Vega, ενώ φοιτά στο Hollywood Arts, ένα από τα top καλλιτεχνικά σχολεία της Αμερικής. Παρόλο που η Tori τα καταφέρνει πολύ καλά στο τραγούδι, το χορό και την ηθοποιία, η ίδια δεν πιστεύει ότι έχει ιδιαίτερο ταλέντο, και είναι διαρκώς υπό τη σκιά της αδελφής της, Trina! Έχει έρθει όμως η στιγμή όπου όλα θα ανατραπούν, αφού η Tori είναι αυτή που θα λάμψει. Οι τηλεθεατές ακολουθούν το ταξίδι της προς την συνειδητοποίηση ότι είναι γεννημένη performer και ένα ανερχόμενο αστέρι!

[Πρέπει να είστε εγγεγραμμένοι και συνδεδεμένοι για να δείτε αυτόν το σύνδεσμο.]

Πληροφορίες αρχείων:
General
Complete name                    : C:\Users\Tsaklas\Desktop\Victorious\Victorious S01E01.mp4
Format                           : MPEG-4
Format profile                   : Base Media / Version 2
Codec ID                         : mp42
File size                        : 176 MiB
Duration                         : 22mn 37s
Overall bit rate                 : 1 086 Kbps
Writing application              : HandBrake 0.10.1 2015030800

Video
ID                               : 1
Format                           : AVC
Format/Info                      : Advanced Video Codec
Format profile                   : Main@L4.0
Format settings, CABAC           : Yes
Format settings, ReFrames        : 4 frames
Format settings, GOP             : M=1, N=25
Codec ID                         : avc1
Codec ID/Info                    : Advanced Video Coding
Duration                         : 22mn 37s
Bit rate mode                    : Variable
Bit rate                         : 920 Kbps
Width                            : 720 pixels
Height                           : 574 pixels
Display aspect ratio             : 16:9
Frame rate mode                  : Variable
Frame rate                       : 25.000 fps
Minimum frame rate               : 10.551 fps
Maximum frame rate               : 25.000 fps
Color space                      : YUV
Chroma subsampling               : 4:2:0
Bit depth                        : 8 bits
Scan type                        : Progressive
Bits/(Pixel*Frame)               : 0.089
Stream size                      : 149 MiB (85%)
Writing library                  : x264 core 142 r2479 dd79a61
Encoding settings                : cabac=1 / ref=1 / deblock=1:0:0 / analyse=0x1:0x111 / me=hex / subme=2 / psy=1 / psy_rd=1.00:0.00 / mixed_ref=0 / me_range=16 / chroma_me=1 / trellis=0 / 8x8dct=0 / cqm=0 / deadzone=21,11 / fast_pskip=1 / chroma_qp_offset=0 / threads=3 / lookahead_threads=1 / sliced_threads=0 / nr=0 / decimate=1 / interlaced=0 / bluray_compat=0 / constrained_intra=0 / bframes=3 / b_pyramid=2 / b_adapt=1 / b_bias=0 / direct=1 / weightb=1 / open_gop=0 / weightp=1 / keyint=250 / keyint_min=25 / scenecut=40 / intra_refresh=0 / rc_lookahead=10 / rc=crf / mbtree=1 / crf=25.0 / qcomp=0.60 / qpmin=0 / qpmax=69 / qpstep=4 / vbv_maxrate=20000 / vbv_bufsize=25000 / crf_max=0.0 / nal_hrd=none / filler=0 / ip_ratio=1.40 / aq=1:1.00
Color primaries                  : BT.470-6 System B, BT.470-6 System G, BT.601-6 625, BT.1358 625, BT.1700 625 PAL, BT.1700 625 SECAM
Transfer characteristics         : BT.709-5, BT.1361
Matrix coefficients              : BT.601-6 525, BT.1358 525, BT.1700 NTSC, SMPTE 170M

Audio
ID                               : 2
Format                           : AAC
Format/Info                      : Advanced Audio Codec
Format profile                   : LC
Codec ID                         : 40
Duration                         : 22mn 37s
Bit rate mode                    : Variable
Bit rate                         : 160 Kbps
Channel(s)                       : 2 channels
Channel positions                : Front: L R
Sampling rate                    : 48.0 KHz
Compression mode                 : Lossy
Stream size                      : 26.0 MiB (15%)
Title                            : Stereo
Language                         : Greek
Thumbnails:
Πατήστε πάνω για μεγέθυνση:
[Πρέπει να είστε εγγεγραμμένοι και συνδεδεμένοι για να δείτε αυτόν το σύνδεσμο.]
Συντελεστές:
Τόρι Βέγκα: Victoria Justice
Άντρε Χάρρις: Leon Thomas III
Ρόμπι Σαπίρο: Matt Bennett
Τζέιντ Ουέστ: Elizabeth Gillies
Κατ Βαλεντάιν: Ariana Grande
Μπεκ Όλιβερ: Avan Jogia
Τρίνα Βέγκα: Daniella Monet

Υποτιτλισμός: AbFab Productions
Ripped, Encoded & Uploaded by Tsaklas
Τα επεισόδια της 4ης σαιζόν προέρχονται από εγγραφές του @JasonC, ενώ μερικά επεισόδια της 2ης είναι του [Πρέπει να είστε εγγεγραμμένοι και συνδεδεμένοι για να δείτε αυτόν το σύνδεσμο.]. Εγώ τα έκανα encode για μικρότερο μέγεθος και ξανά upload.
Πηγή εγγραφών: Nickelodeon Greece, MTV Greece



Season 1
Όλα τα επεισόδια σε έναν φάκελο:

Σημείωση: Τα επεισόδια 5 & 6 έχουν μπει ανάποδα οπότε το 5 είναι το 6 και αντίστροφα.

Season 2 - Ολοκληρώθηκε!
Σπόιλερ:

Season 3 - Ολοκληρώθηκε!
Σπόιλερ:

Season 4
Όλα τα επεισόδια μέσα στον φάκελο:


Στατιστικά project:
Διαθέσιμα: 60/60
Ανεβασμένα Season 1: 20/20
Ανεβασμένα Season 2: 13/13
Ανεβασμένα Season 3: 14/14
Αναβασμένα Season 4: 13/13
Σύνολο: 60/60
Πρόοδος: 100%

Κατεβάστε από εδώ τα soundtracks της σειράς by [Πρέπει να είστε εγγεγραμμένοι και συνδεδεμένοι για να δείτε αυτόν το σύνδεσμο.]!
Victorious: Music from the Hit TV Show (2011):


Victorious 2.0: More Music from the Hit TV Show (2012):


Victorious 3.0: Even More Music from the Hit TV Show (2012):


[/b]
Αποκλειστικά για το  TeenSpirit!



Έχει επεξεργασθεί από τον/την Tsaklas στις Κυρ Αυγ 07, 2016 10:22 am, 27 φορές συνολικά

Μοιραστείτε αυτή τη δημοσίευση στο:Excite BookmarksDiggRedditDel.icio.usGoogleLiveSlashdotNetscapeTechnoratiStumbleUponNewsvineFurlYahooSmarking

avatar

Δημοσίευση Την / Το Πεμ Μαϊος 04, 2017 7:39 pm από love1D

πως μπορω να δω τα επεισοδεια;

avatar

Δημοσίευση Την / Το Δευ Ιουλ 24, 2017 5:56 pm από mikey900

ευχαριστω πολυ!

avatar

Δημοσίευση Την / Το Δευ Ιουλ 24, 2017 6:49 pm από MaddieRose78

Ευχαριστώ!

avatar

Δημοσίευση Την / Το Παρ Ιουλ 28, 2017 1:11 pm από george100

thx

avatar

Δημοσίευση Την / Το Κυρ Αυγ 20, 2017 9:22 pm από darios2000

avatar

Δημοσίευση Την / Το Τρι Αυγ 22, 2017 4:39 pm από martha35

Επισκόπηση προηγούμενης Θ.Ενότητας Επισκόπηση επόμενης Θ.Ενότητας Επιστροφή στην κορυφή Μήνυμα [Σελίδα 3 από 3]

Μετάβαση στη σελίδα : Επιστροφή  1, 2, 3

Δικαιώματα σας στην κατηγορία αυτή
Δεν μπορείτε να απαντήσετε στα Θέματα αυτής της Δ.Συζήτησης