Teen Spirit

Ένα φόρουμ αποκλειστικά για νεανικές σειρές στα ελληνικά!


Μη Συνδεδεμενος Παρακαλώ συνδεθείτε ή εγγραφείτε

[MEGA] Cloud 9 SATRip (2014)

Μετάβαση στη σελίδα : Επιστροφή  1, 2

Επισκόπηση προηγούμενης Θ.Ενότητας Επισκόπηση επόμενης Θ.Ενότητας Πήγαινε κάτω Μήνυμα [Σελίδα 2 από 2]

avatar

Santo


Ultra Member
Ultra Member


Cloud 9





Trailer/Περίληψη:

Screenshots/Thumbnails:

Xαρακτηριστικά:
General
Complete name                  : Cloud 9 (2014).mp4
Format                         : MPEG-4
Format profile                 : Base Media
Codec ID                       : isom
File size                      : 420 MiB
Duration                       : 1h 23mn
Overall bit rate mode          : Variable
Overall bit rate               : 701 Kbps
Encoded date                   : UTC 2014-07-09 19:25:24
Tagged date                    : UTC 2014-07-09 19:25:24

Video
ID                             : 1
Format                         : AVC
Format/Info                    : Advanced Video Codec
Format profile                 : High@L3.0
Format settings, CABAC         : Yes
Format settings, ReFrames      : 5 frames
Codec ID                       : avc1
Codec ID/Info                  : Advanced Video Coding
Duration                       : 1h 23mn
Bit rate                       : 657 Kbps
Maximum bit rate               : 2 069 Kbps
Width                          : 720 pixels
Height                         : 540 pixels
Display aspect ratio           : 4:3
Frame rate mode                : Constant
Frame rate                     : 25.000 fps
Color space                    : YUV
Chroma subsampling             : 4:2:0
Bit depth                      : 8 bits
Scan type                      : Progressive
Bits/(Pixel*Frame)             : 0.068
Stream size                    : 393 MiB (94%)
Title                          : /var/www/cgi-bin/uploads/01/00731/3fchnryk7vor.h264 - Imported with GPAC 0.4.6-DEV (internal rev. 8 )
Writing library                : x264 core 118
Encoding settings              : cabac=1 / ref=5 / deblock=1:0:0 / analyse=0x3:0x113 / me=umh / subme=8 / psy=1 / psy_rd=1.00:0.00 / mixed_ref=1 / me_range=16 / chroma_me=1 / trellis=1 / 8x8dct=1 / cqm=0 / deadzone=21,11 / fast_pskip=1 / chroma_qp_offset=-2 / threads=12 / sliced_threads=0 / nr=0 / decimate=1 / interlaced=0 / bluray_compat=0 / constrained_intra=0 / bframes=3 / b_pyramid=2 / b_adapt=2 / b_bias=0 / direct=3 / weightb=1 / open_gop=0 / weightp=2 / keyint=250 / keyint_min=25 / scenecut=40 / intra_refresh=0 / rc_lookahead=50 / rc=crf / mbtree=1 / crf=24.0 / qcomp=0.60 / qpmin=0 / qpmax=69 / qpstep=4 / ip_ratio=1.40 / aq=1:1.00


Audio
ID                             : 2
Format                         : AAC
Format/Info                    : Advanced Audio Codec
Format profile                 : HE-AAC / LC
Codec ID                       : 40
Duration                       : 1h 23mn
Bit rate mode                  : Variable
Bit rate                       : 41.2 Kbps
Maximum bit rate               : 49.0 Kbps
Channel(s)                     : 1 channel
Channel positions              : Front: C
Sampling rate                  : 44.1 KHz / 22.05 KHz
Compression mode               : Lossy
Stream size                    : 24.7 MiB (6%)
Encoded date                   : UTC 2014-07-09 19:25:27
Tagged date                    : UTC 2014-07-09 19:25:28

Μεταγλωττιστές :
Η φωνές που ακούστηκαν ήταν:
Ευτυχία Λιβανή
Γιώργος Ματαράγκα
Ηλέκτρα Μυλοπούλου
Μπάμπης Αλεξανδρόπουλος,
Ανδρέας Ευαγγελάτος
Μετάφραση: Χαρά Ζησιμάτου
Στούντιο Ηχογράφησης: Sierra Post

Link:


Πρέπει να κάνετε ένα σχόλιο για να δείτε το link.
Το αρχικό ανέβασμα είναι της ομάδας Tvgreece.On .

ΚΑΛΗ ΘΕΑΣΗ Very Happy



Έχει επεξεργασθεί από τον/την Santo στις Σαβ Ιαν 24, 2015 7:24 pm, 4 φορές συνολικά

Μοιραστείτε αυτή τη δημοσίευση στο:diggdeliciousredditstumbleuponslashdotyahoogooglelive

avatar

Δημοσίευση Την / Το Κυρ Φεβ 04, 2018 12:01 am από navarro

Thanks!

avatar

Δημοσίευση Την / Το Παρ Μαρ 16, 2018 10:39 pm από l0vegrtoons

ευχαριστω!

avatar

Δημοσίευση Την / Το Κυρ Μαρ 25, 2018 1:11 am από matadorGR

tnx

avatar

Δημοσίευση Την / Το Δευ Ιουλ 30, 2018 10:37 am από mariaapann

<3

avatar

Δημοσίευση Σήμερα στις 12:14 am από τινα

thnx

Επισκόπηση προηγούμενης Θ.Ενότητας Επισκόπηση επόμενης Θ.Ενότητας Επιστροφή στην κορυφή Μήνυμα [Σελίδα 2 από 2]

Μετάβαση στη σελίδα : Επιστροφή  1, 2

Δικαιώματα σας στην κατηγορία αυτή
Δεν μπορείτε να απαντήσετε στα Θέματα αυτής της Δ.Συζήτησης