Teen Spirit

Ένα φόρουμ αποκλειστικά για νεανικές σειρές στα ελληνικά!


Μη Συνδεδεμενος Παρακαλώ συνδεθείτε ή εγγραφείτε

[MEGA] Popland! DTVRip (2011)

Επισκόπηση προηγούμενης Θ.Ενότητας Επισκόπηση επόμενης Θ.Ενότητας Πήγαινε κάτω Μήνυμα [Σελίδα 1 από 1]

avatar

NickSplat2


Medium Member
Medium Member



Η Carla είναι μία έξυπνη, πιστή, χαρισματική και φιλόδοξη 18χρονη που έχει μεγάλα όνειρα. Μεγαλωμένη σε μια μικρή πόλη, μετακομίζει στην μεγάλη πόλη και αναλαμβάνει τη δουλειά των ονείρων της ως παπαράτσι για το Popland.com. Oι καλύτερες φωτογραφίες της είναι εκείνες του Ari, ενός Rockstar και απόλυτου ειδώλου όλων των κοριτσιών. Δεν του αρέσουν οι συνεντεύξεις και απεχθάνεται να τον φωτογραφίζουν.

Κάτι όμως δημιουργείται ανάμεσα στον Ari και στην Carla. Μια έλξη αρκετή ώστε να προσφέρει στην Carla μία VIP πρόσβαση στη ζωή του και να γίνει η αποκλειστική φωτογράφος του. Αυτό και μόνο αρκεί ώστε να “εκτοξεύει” την Carla στην πρώτη θέση στον κόσμο των παπαράτσι. Οι συνάδελφοί της την ζηλεύουν τρομερά και τα κορίτσια ζηλεύουν την VIP πρόσβαση που έχει. Ο μεγάλος ανταγωνισμός βάζει σε κίνδυνο την καριέρα της, αλλά η επιμονή και η αποφασιστικότητά της δεν θα την απογοητεύσουν.

Πρόκειται για ένα επεισόδιο από DTVRip του Super B -Μαγνητοσκοπημένη μετάδοση του MTV- και στο μέλλον θα συνεχίσω με WEBRips και DTVRips του MTV!

SCREENSHORTS:
MEDIA INFO:
General
Complete name                            : C:\Greek [DTV-VCD-DVD Ripped] Cartoons\pOPLAND.mp4
Format                                   : MPEG-4
Format profile                           : Base Media / Version 2
Codec ID                                 : mp42
File size                                : 594 MiB
Duration                                 : 44mn 14s
Overall bit rate mode                    : Variable
Overall bit rate                         : 1 876 Kbps
Encoded date                             : UTC 2036-02-06 06:28:16
Tagged date                              : UTC 2036-02-06 06:28:16
Writing application                      : HandBrake 0.10.2 2015060900

Video
ID                                       : 1
Format                                   : AVC
Format/Info                              : Advanced Video Codec
Format profile                           : Main@L4.0
Format settings, CABAC                   : Yes
Format settings, ReFrames                : 4 frames
Codec ID                                 : avc1
Codec ID/Info                            : Advanced Video Coding
Duration                                 : 44mn 14s
Bit rate                                 : 1 711 Kbps
Width                                    : 702 pixels
Height                                   : 576 pixels
Display aspect ratio                     : 4:3
Frame rate mode                          : Variable
Frame rate                               : 25.000 fps
Minimum frame rate                       : 5.435 fps
Maximum frame rate                       : 25.000 fps
Color space                              : YUV
Chroma subsampling                       : 4:2:0
Bit depth                                : 8 bits
Scan type                                : Progressive
Bits/(Pixel*Frame)                       : 0.169
Stream size                              : 541 MiB (91%)
Writing library                          : x264 core 142 r2479 dd79a61
Encoding settings                        : cabac=1 / ref=1 / deblock=1:0:0 / analyse=0x1:0x111 / me=hex / subme=2 / psy=1 / psy_rd=1.00:0.00 / mixed_ref=0 / me_range=16 / chroma_me=1 / trellis=0 / 8x8dct=0 / cqm=0 / deadzone=21,11 / fast_pskip=1 / chroma_qp_offset=0 / threads=3 / lookahead_threads=1 / sliced_threads=0 / nr=0 / decimate=1 / interlaced=0 / bluray_compat=0 / constrained_intra=0 / bframes=3 / b_pyramid=2 / b_adapt=1 / b_bias=0 / direct=1 / weightb=1 / open_gop=0 / weightp=1 / keyint=250 / keyint_min=25 / scenecut=40 / intra_refresh=0 / rc_lookahead=10 / rc=crf / mbtree=1 / crf=20.0 / qcomp=0.60 / qpmin=0 / qpmax=69 / qpstep=4 / vbv_maxrate=20000 / vbv_bufsize=25000 / crf_max=0.0 / nal_hrd=none / filler=0 / ip_ratio=1.40 / aq=1:1.00
Encoded date                             : UTC 2036-02-06 06:28:16
Tagged date                              : UTC 2036-02-06 06:28:16
Color primaries                          : BT.601 PAL
Transfer characteristics                 : BT.709
Matrix coefficients                      : BT.601

Audio
ID                                       : 2
Format                                   : AAC
Format/Info                              : Advanced Audio Codec
Format profile                           : LC
Codec ID                                 : 40
Duration                                 : 44mn 13s
Bit rate mode                            : Variable
Bit rate                                 : 160 Kbps
Channel count                            : 2 channels
Channel positions                        : Front: L R
Sampling rate                            : 48.0 KHz
Compression mode                         : Lossy
Delay relative to video                  : 224ms
Stream size                              : 50.7 MiB (9%)
Title                                    : Stereo
Encoded date                             : UTC 2036-02-06 06:28:16
Tagged date                              : UTC 2036-02-06 06:28:16

LINK:



Έχει επεξεργασθεί από τον/την NickSplat2 στις Παρ Σεπ 25, 2015 9:56 pm, 1 φορά

Μοιραστείτε αυτή τη δημοσίευση στο:Excite BookmarksDiggRedditDel.icio.usGoogleLiveSlashdotNetscapeTechnoratiStumbleUponNewsvineFurlYahooSmarking

avatar

Δημοσίευση Την / Το Πεμ Σεπ 24, 2015 9:05 pm από Nikos7Gauros

Ευχαριστούμε πολύ!! ;D

avatar

Δημοσίευση Την / Το Κυρ Σεπ 27, 2015 9:52 am από Vixen

Ευχαριστώ

avatar

Δημοσίευση Την / Το Δευ Σεπ 28, 2015 1:43 am από lef0

Ευχαριστώ

avatar

Δημοσίευση Την / Το Δευ Σεπ 28, 2015 9:50 pm από NickSplat2

Thanks

Δημοσίευση Την / Το Δευ Σεπ 28, 2015 10:43 pm από sparky92

ευχαριστω φιλεεε

Δημοσίευση Την / Το Τετ Οκτ 14, 2015 3:21 am από sparky92

ευχαριστω

Δημοσίευση Την / Το Παρ Οκτ 16, 2015 2:44 pm από TB87

ευχαριστω

avatar

Δημοσίευση Την / Το Τρι Ιουν 13, 2017 1:42 pm από martha35

Επισκόπηση προηγούμενης Θ.Ενότητας Επισκόπηση επόμενης Θ.Ενότητας Επιστροφή στην κορυφή Μήνυμα [Σελίδα 1 από 1]

Δικαιώματα σας στην κατηγορία αυτή
Δεν μπορείτε να απαντήσετε στα Θέματα αυτής της Δ.Συζήτησης