Teen Spirit

Ένα φόρουμ αποκλειστικά για νεανικές σειρές στα ελληνικά!


Μη Συνδεδεμενος Παρακαλώ συνδεθείτε ή εγγραφείτε

[MEGA] Frenemies SATRip (2012)

Μετάβαση στη σελίδα : Επιστροφή  1, 2

Επισκόπηση προηγούμενης Θ.Ενότητας Επισκόπηση επόμενης Θ.Ενότητας Πήγαινε κάτω Μήνυμα [Σελίδα 2 από 2]

avatar

Santo


Ultra Member
Ultra Member

Frenemies



Περίληψη:
Τι συμβαίνει όταν τρία ζευγάρια κολλητών φίλων γίνονται εχθροί;
Η πρώτη ιστορία ακολουθεί τη Halley (Zendaya) και την Άβαλον (Bella Thorne), δυο αχώριστες φίλες που "τρελαίνονται" από την χαρά τους όταν ένας εκδότης θέλει να μετατρέψει το blog μόδας τους σε ένα περιοδικό, αλλά η φιλία τους θα τεθεί σε δοκιμασία, όταν μαθαίνουν ότι το περιοδικό θέλει μόνο μία από αυτές να παραμείνει ως αρχισυντάκτης.
Η δεύτερη ιστορία ακολουθεί την αδιάσπαστη φιλία του Jake (Nick Robinson) και του σκύλου του, Murray.
Ο Jake ενθουσιάζεται όταν η ομορφότερη κοπέλα του σχολείου η Julianne (Stefanie Scott) τον προσεγγίζει προκειμένου να κάνουν μαζί μια επιστημονική εργασία.
Ο Murray όμως διαισθάνεται (σωστά) κάτι κακό για την Julianne όταν την βλέπει για πρώτη φορά και αντιδρά με τέτοιο τρόπο που θα θέσει τη μακροχρόνια σχέση αγάπης-φιλίας με τονJake σε μεγάλη δοκιμασία.
Στην τελευταία ιστορία, το αγοροκόριτσο Savannah (Mary Mouser), από μια οικογένεια μεσαίας τάξης, συναντά την αριστοκράτισα Emma, με την οποία μοιάζουν σα μια σταγόνα νερό!
Τα δύο κορίτσια γίνονται γρήγορα φίλες και αποφασίζουν να ανταλλάξουν τις "ζωές" τους για λίγο, αλλά συνειδητοποιούν ότι η ζωή από την άλλη πλευρά, δεν είναι έτσι όπως την είχαν φανταστεί.

Screenshots/Thumbnails:

Xαρακτηριστικά:
General
Complete name                  : E:\Ταινίες-Σειρές\Ταινίες\Disney\Frenemies (2012)\Frenemies (2012).mp4
Format                         : MPEG-4
Format profile                 : Base Media / Version 2
Codec ID                       : mp42
File size                      : 458 MiB
Duration                       : 1h 22mn

Video
ID                             : 201
Format                         : AVC
Format/Info                    : Advanced Video Codec
Format profile                 : High@L2.1
Format settings, CABAC         : Yes
Format settings, ReFrames      : 4 frames
Codec ID                       : avc1
Codec ID/Info                  : Advanced Video Coding
Duration                       : 1h 22mn
Bit rate                       : 643 Kbps
Maximum bit rate               : 1 864 Kbps
Width                          : 480 pixels
Height                         : 336 pixels
Display aspect ratio           : 1.423
Original display aspect ratio  : 1.422
Frame rate mode                : Constant
Frame rate                     : 25.000 fps
Color space                    : YUV
Chroma subsampling             : 4:2:0
Bit depth                      : 8 bits
Scan type                      : Progressive
Bits/(Pixel*Frame)             : 0.159
Stream size                    : 379 MiB (83%)
Writing library                : x264 core 128 r2216 198a7ea
Encoding settings              : cabac=1 / ref=3 / deblock=1:0:0 / analyse=0x3:0x113 / me=hex / subme=7 / psy=1 / psy_rd=1.00:0.00 / mixed_ref=1 / me_range=16 / chroma_me=1 / trellis=1 / 8x8dct=1 / cqm=0 / deadzone=21,11 / fast_pskip=1 / chroma_qp_offset=-2 / threads=12 / lookahead_threads=2 / sliced_threads=0 / nr=0 / decimate=1 / interlaced=0 / bluray_compat=0 / constrained_intra=0 / bframes=3 / b_pyramid=2 / b_adapt=1 / b_bias=0 / direct=1 / weightb=1 / open_gop=0 / weightp=2 / keyint=250 / keyint_min=25 / scenecut=40 / intra_refresh=0 / rc_lookahead=40 / rc=crf / mbtree=1 / crf=22.0 / qcomp=0.60 / qpmin=0 / qpmax=69 / qpstep=4 / ip_ratio=1.40 / aq=1:1.00
Language                       : Greek

Audio
ID                             : 101
Format                         : AAC
Format/Info                    : Advanced Audio Codec
Format profile                 : LC
Codec ID                       : 40
Duration                       : 1h 22mn
Bit rate mode                  : Variable
Bit rate                       : 128 Kbps
Maximum bit rate               : 138 Kbps
Channel(s)                     : 2 channels
Channel positions              : Front: L R
Sampling rate                  : 44.1 KHz
Compression mode               : Lossy
Stream size                    : 75.5 MiB (16%)

Μεταγλωττιστές:
Η φωνές που ακούστηκαν ήταν:
Αφροδίτη Αντωνάκη
Δημήτρης Δημόπουλος
Ζωή Κατσάτου
Ιφιγένεια Στάϊκου
Παναγιώτης Αποστολόπουλος
Στέλιος Ψαρουδάκης
Μετάφραση: Βασιλική Δήμου
Στούντιο Ηχογράφησης: Sierra Post



Πρέπει να κάνετε ένα σχόλιο για να δείτε το link.
Το αρχικό ανέβασμα δεν είναι δικό μου.

ΚΑΛΗ ΘΕΑΣΗ Very Happy



Έχει επεξεργασθεί από τον/την Santo στις Σαβ Ιαν 24, 2015 7:21 pm, 1 φορά

Μοιραστείτε αυτή τη δημοσίευση στο:diggdeliciousredditstumbleuponslashdotyahoogooglelive

avatar

Δημοσίευση Την / Το Πεμ Απρ 13, 2017 5:06 pm από teliosmetonma

ty

avatar

Δημοσίευση Την / Το Κυρ Ιαν 28, 2018 12:06 am από l0vegrtoons

Ευχαριστώ!!

avatar

Δημοσίευση Την / Το Σαβ Φεβ 03, 2018 4:02 pm από navarro

Thanks!

avatar

Δημοσίευση Την / Το Παρ Φεβ 23, 2018 9:59 pm από koskosto

super!!

avatar

Δημοσίευση Την / Το Σαβ Φεβ 24, 2018 1:47 pm από Kaskander

Thanx

avatar

Δημοσίευση Την / Το Πεμ Μαρ 22, 2018 10:48 pm από michalispant.

thnx

avatar

Δημοσίευση Την / Το Κυρ Μαρ 25, 2018 1:12 am από matadorGR

tnx

Επισκόπηση προηγούμενης Θ.Ενότητας Επισκόπηση επόμενης Θ.Ενότητας Επιστροφή στην κορυφή Μήνυμα [Σελίδα 2 από 2]

Μετάβαση στη σελίδα : Επιστροφή  1, 2

Δικαιώματα σας στην κατηγορία αυτή
Δεν μπορείτε να απαντήσετε στα Θέματα αυτής της Δ.Συζήτησης