Teen Spirit

Ένα φόρουμ αποκλειστικά για νεανικές σειρές στα ελληνικά!


Μη Συνδεδεμενος Παρακαλώ συνδεθείτε ή εγγραφείτε

[MEGA] Radio Rebel SATRip (2012)

Μετάβαση στη σελίδα : 1, 2  Επόμενο

Επισκόπηση προηγούμενης Θ.Ενότητας Επισκόπηση επόμενης Θ.Ενότητας Πήγαινε κάτω Μήνυμα [Σελίδα 1 από 2]

avatar

Alex


Admin
Admin
https://www.youtube.com/user/ALEXM99999

Ράδιο Επαναστάτρια

Η Τάρα είναι μια ντροπαλή έφηβη που εξελίσσεται σε εξαιρετικά δημοφιλή ντι-τζέι με μυστική ταυτότητα. Μετά από ένα αναπάντεχο γεγονός όμως, πρέπει να βρει το θάρρος να αποκαλύψει ποια είναι πραγματικά.



Πληροφορίες:
General
Complete name                            : C:\Users\alex\Movies\Radio Rebel\RADIO_REBEL.avi
Format                                   : AVI
Format/Info                              : Audio Video Interleave
File size                                : 1.02 GiB
Duration                                 : 1h 25mn
Overall bit rate                         : 1 703 Kbps

Video
ID                                       : 0
Format                                   : AVC
Format/Info                              : Advanced Video Codec
Format profile                           : Main@L5.1
Format settings, CABAC                   : Yes
Format settings, ReFrames                : 1 frame
Codec ID                                 : H264
Duration                                 : 1h 25mn
Bit rate                                 : 1 501 Kbps
Width                                    : 1 024 pixels
Height                                   : 576 pixels
Display aspect ratio                     : 16:9
Frame rate                               : 25.000 fps
Color space                              : YUV
Chroma subsampling                       : 4:2:0
Bit depth                                : 8 bits
Scan type                                : Progressive
Bits/(Pixel*Frame)                       : 0.102
Stream size                              : 922 MiB (88%)

Audio
ID                                       : 1
Format                                   : MPEG Audio
Format version                           : Version 1
Format profile                           : Layer 3
Codec ID                                 : 55
Codec ID/Hint                            : MP3
Duration                                 : 1h 25mn
Bit rate mode                            : Constant
Bit rate                                 : 192 Kbps
Channel(s)                               : 2 channels
Sampling rate                            : 44.1 KHz
Compression mode                         : Lossy
Stream size                              : 118 MiB (11%)
Alignment                                : Split accross interleaves
Interleave, duration                     : 41 ms (1.02 video frame)
Interleave, preload duration             : 154 ms
Thumbnails:

Link:



Για να δείτε τα link πρέπει να κάνετε ένα σχόλιο

Κωδικός Αποσυμπίεσης: radio_rebel.alex

To project είναι αποκλειστικά για το TeenSpirit. Να μην προστεθεί αλλού.



Έχει επεξεργασθεί από τον/την Alex στις Σαβ Οκτ 10, 2015 10:12 am, 1 φορά


_________________
Alex
Μοιραστείτε αυτή τη δημοσίευση στο:Excite BookmarksDiggRedditDel.icio.usGoogleLiveSlashdotNetscapeTechnoratiStumbleUponNewsvineFurlYahooSmarking

avatar

Δημοσίευση Την / Το Σαβ Οκτ 10, 2015 7:50 am από Nikos7Gauros

Ευχαριστούμε πολύ!! Smile

avatar

Δημοσίευση Την / Το Σαβ Οκτ 10, 2015 11:22 am από teo95

Ευχαριστούμε πολύ!!

Δημοσίευση Την / Το Σαβ Οκτ 10, 2015 11:41 am από SD2

Ευχαριστώ πολυ

avatar

Δημοσίευση Την / Το Κυρ Οκτ 11, 2015 4:31 am από lef0

Ευχαριστώ

avatar

Δημοσίευση Την / Το Κυρ Οκτ 11, 2015 8:49 am από gazakias1970

ευχαριστώ!

avatar

Δημοσίευση Την / Το Κυρ Οκτ 11, 2015 12:31 pm από Santo

Ευχαριστώ Very Happy

avatar

Δημοσίευση Την / Το Κυρ Οκτ 11, 2015 3:57 pm από theothunder

ευχαριστουμε

Δημοσίευση Την / Το Κυρ Οκτ 11, 2015 4:18 pm από panagiotis94

avatar

Δημοσίευση Την / Το Κυρ Οκτ 11, 2015 10:23 pm από theothunder

ο κωδικος αποσυμπιεσης δεν μου λειτουργει...

avatar

Δημοσίευση Την / Το Κυρ Οκτ 11, 2015 11:09 pm από Alex

Είσαι σίγουρος;

Δημοσίευση Την / Το Πεμ Οκτ 15, 2015 2:37 pm από disney12

teleia seira

avatar

Δημοσίευση Την / Το Πεμ Οκτ 15, 2015 2:40 pm από Alex

Ταινία είναι. Razz

Δημοσίευση Την / Το Παρ Οκτ 16, 2015 2:51 pm από TB87

ευχαριστω

Δημοσίευση Την / Το Παρ Οκτ 16, 2015 8:44 pm από sparky92

ευχαριστουμε Smile

Δημοσίευση Την / Το Σαβ Οκτ 17, 2015 12:20 pm από SD2

Δεν μπορω να κατεβάσω το part 7
Τι να κανω;

avatar

Δημοσίευση Την / Το Πεμ Νοε 05, 2015 10:49 am από giwrgos00

ty

avatar

Δημοσίευση Την / Το Δευ Δεκ 21, 2015 5:09 pm από JDahn99

avatar

Δημοσίευση Την / Το Σαβ Ιαν 30, 2016 11:16 pm από AUSTIN B.

Nice

avatar

Δημοσίευση Την / Το Κυρ Φεβ 14, 2016 9:16 pm από cronaldo77

ty

avatar

Δημοσίευση Την / Το Τετ Φεβ 17, 2016 2:41 pm από cronaldo77

μολις τα κατεβασω αυτα που πρεπει μετα ποιο πρεπει να ανοιξω για να παιξει η ταινια??

avatar

Δημοσίευση Την / Το Παρ Φεβ 19, 2016 9:12 pm από stefania12

καλο φνετε

avatar

Δημοσίευση Την / Το Παρ Φεβ 19, 2016 10:31 pm από stefania12

πιο απο ολα πρεπι να κατεβασο

avatar

Δημοσίευση Την / Το Παρ Φεβ 19, 2016 10:48 pm από Alex

Όλα και όταν τα κατεβάσεις τότε ανοίγεις το 1ο.

avatar

Δημοσίευση Την / Το Κυρ Μαρ 06, 2016 2:50 pm από marakilovaki

ευχαριστουμε

Επισκόπηση προηγούμενης Θ.Ενότητας Επισκόπηση επόμενης Θ.Ενότητας Επιστροφή στην κορυφή Μήνυμα [Σελίδα 1 από 2]

Μετάβαση στη σελίδα : 1, 2  Επόμενο

Δικαιώματα σας στην κατηγορία αυτή
Δεν μπορείτε να απαντήσετε στα Θέματα αυτής της Δ.Συζήτησης