Teen Spirit

Ένα φόρουμ αποκλειστικά για νεανικές σειρές στα ελληνικά!


Μη Συνδεδεμενος Παρακαλώ συνδεθείτε ή εγγραφείτε

[MEGA] Radio Rebel SATRip (2012)

Μετάβαση στη σελίδα : Επιστροφή  1, 2

Επισκόπηση προηγούμενης Θ.Ενότητας Επισκόπηση επόμενης Θ.Ενότητας Πήγαινε κάτω Μήνυμα [Σελίδα 2 από 2]

avatar

Alex


Admin
Admin
https://www.youtube.com/user/ALEXM99999

Ράδιο Επαναστάτρια

Η Τάρα είναι μια ντροπαλή έφηβη που εξελίσσεται σε εξαιρετικά δημοφιλή ντι-τζέι με μυστική ταυτότητα. Μετά από ένα αναπάντεχο γεγονός όμως, πρέπει να βρει το θάρρος να αποκαλύψει ποια είναι πραγματικά.



Πληροφορίες:
General
Complete name                            : C:\Users\alex\Movies\Radio Rebel\RADIO_REBEL.avi
Format                                   : AVI
Format/Info                              : Audio Video Interleave
File size                                : 1.02 GiB
Duration                                 : 1h 25mn
Overall bit rate                         : 1 703 Kbps

Video
ID                                       : 0
Format                                   : AVC
Format/Info                              : Advanced Video Codec
Format profile                           : Main@L5.1
Format settings, CABAC                   : Yes
Format settings, ReFrames                : 1 frame
Codec ID                                 : H264
Duration                                 : 1h 25mn
Bit rate                                 : 1 501 Kbps
Width                                    : 1 024 pixels
Height                                   : 576 pixels
Display aspect ratio                     : 16:9
Frame rate                               : 25.000 fps
Color space                              : YUV
Chroma subsampling                       : 4:2:0
Bit depth                                : 8 bits
Scan type                                : Progressive
Bits/(Pixel*Frame)                       : 0.102
Stream size                              : 922 MiB (88%)

Audio
ID                                       : 1
Format                                   : MPEG Audio
Format version                           : Version 1
Format profile                           : Layer 3
Codec ID                                 : 55
Codec ID/Hint                            : MP3
Duration                                 : 1h 25mn
Bit rate mode                            : Constant
Bit rate                                 : 192 Kbps
Channel(s)                               : 2 channels
Sampling rate                            : 44.1 KHz
Compression mode                         : Lossy
Stream size                              : 118 MiB (11%)
Alignment                                : Split accross interleaves
Interleave, duration                     : 41 ms (1.02 video frame)
Interleave, preload duration             : 154 ms
Thumbnails:

Link:



Για να δείτε τα link πρέπει να κάνετε ένα σχόλιο

Κωδικός Αποσυμπίεσης: radio_rebel.alex

To project είναι αποκλειστικά για το TeenSpirit. Να μην προστεθεί αλλού.



Έχει επεξεργασθεί από τον/την Alex στις Σαβ Οκτ 10, 2015 10:12 am, 1 φορά


_________________
Alex
Μοιραστείτε αυτή τη δημοσίευση στο:Excite BookmarksDiggRedditDel.icio.usGoogleLiveSlashdotNetscapeTechnoratiStumbleUponNewsvineFurlYahooSmarking

avatar

Δημοσίευση Την / Το Σαβ Μαϊος 21, 2016 3:07 am από tironsi74

Να`σαι καλά

avatar

Δημοσίευση Την / Το Δευ Ιουν 27, 2016 12:03 pm από Vaggelic

Thanx

avatar

Δημοσίευση Την / Το Σαβ Αυγ 06, 2016 11:09 pm από Kaskander

Ευχαριστώ

avatar

Δημοσίευση Την / Το Τρι Σεπ 27, 2016 12:45 pm από PCTipsGR

thanks

avatar

Δημοσίευση Την / Το Σαβ Οκτ 01, 2016 7:20 pm από MsterXgeo

ΤΗΧ

avatar

Δημοσίευση Την / Το Δευ Ιαν 30, 2017 8:25 pm από Thodoris7171

thanks

avatar

Δημοσίευση Την / Το Σαβ Μαρ 18, 2017 4:28 pm από WinxClubGreek

Ty

avatar

Δημοσίευση Την / Το Τρι Μαρ 21, 2017 1:02 am από kitty

ευχαριστώ

Επισκόπηση προηγούμενης Θ.Ενότητας Επισκόπηση επόμενης Θ.Ενότητας Επιστροφή στην κορυφή Μήνυμα [Σελίδα 2 από 2]

Μετάβαση στη σελίδα : Επιστροφή  1, 2

Δικαιώματα σας στην κατηγορία αυτή
Δεν μπορείτε να απαντήσετε στα Θέματα αυτής της Δ.Συζήτησης