Teen Spirit

Ένα φόρουμ αποκλειστικά για νεανικές σειρές στα ελληνικά!


Μη Συνδεδεμενος Παρακαλώ συνδεθείτε ή εγγραφείτε

[MEGA] Unfabulous DTVRip (2004)

Μετάβαση στη σελίδα : Επιστροφή  1, 2

Επισκόπηση προηγούμενης Θ.Ενότητας Επισκόπηση επόμενης Θ.Ενότητας Πήγαινε κάτω Μήνυμα [Σελίδα 2 από 2]


Tsaklas


Admin
Admin
http://teenspirit.forumgreek.com

Μπήκαν όσα έλειπαν! Ολοκληρώθηκε πλήρως!

Η Addie Singer (Emma Roberts) είναι ένα πανέξυπνο 13χρονο κορίτσι που θέλει απλά να βγάλει τη κάθε της σχολική ημέρα όσο πιο ανώδυνα γίνεται. Είναι μια τυπική teenager αλλά με μια διαφορά: την έφεσή της στο τραγούδι! Η μουσική που γράφει τη βοηθάει να ερμηνεύει και να ξεπερνάει κάθε καθημερινή δυσκολία, με την βοήθεια των φίλων της Τζίνα και Ζακ!

Μια καταπληκτική νεανική σειρά που μεταδιδόταν μέχρι πέρσι στο Nickelodeon, την θεωρώ από τις πιο αξιόλογες. Τα επεισόδια της σειράς μου δίνει ο φίλος μου, foojam2002, που έχει κάνει το rip και τον ευχαριστώ θερμά! Θα μπουν όλα σταδιακά!



Χαρακτηριστικά:
General
Complete name                    : G:\1 EPISODES\Unfabulous\Season 1\S01E01 The Party\1.1 The Party.wmv
Format                           : Windows Media
File size                        : 150 MiB
Duration                         : 23mn 19s
Overall bit rate mode            : Constant
Overall bit rate                 : 900 Kbps
Maximum Overall bit rate         : 907 Kbps
Movie name                       : 1.1
Encoded date                     : UTC 2014-09-12 10:27:33.187
Application                      : Windows Movie Maker 2.1.4028.0

Video
ID                               : 2
Format                           : VC-1
Format profile                   : MP@ML
Codec ID                         : WMV3
Codec ID/Info                    : Windows Media Video 9
Codec ID/Hint                    : WMV3
Description of the codec         : Windows Media Video 9
Duration                         : 23mn 19s
Bit rate mode                    : Constant
Bit rate                         : 768 Kbps
Width                            : 720 pixels
Height                           : 576 pixels
Display aspect ratio             : 5:4
Frame rate                       : 25.000 fps
Standard                         : PAL
Bit depth                        : 8 bits
Scan type                        : Progressive
Compression mode                 : Lossy
Bits/(Pixel*Frame)               : 0.074
Stream size                      : 128 MiB (85%)
Language                         : Greek

Audio
ID                               : 1
Format                           : WMA
Format version                   : Version 2
Codec ID                         : 161
Codec ID/Info                    : Windows Media Audio
Description of the codec         : Windows Media Audio 9.2 - 128 kbps, 44 kHz, stereo (A/V) 1-pass CBR
Duration                         : 23mn 19s
Bit rate mode                    : Constant
Bit rate                         : 128 Kbps
Channel(s)                       : 2 channels
Sampling rate                    : 44.1 KHz
Bit depth                        : 16 bits
Stream size                      : 21.4 MiB (14%)
Language                         : English
Thumbnails:
Συντελεστές:
Άντι: Emma Roberts
Τζίνα: Malese Jow
Ζακ: Jordan Calloway
Μπεν: Tadhg Kelly
Σου Σίγνκερ: Molly Hagan
Τζεφ Σίνγκερ: Markus Flanagan
Mέρις: Emma Degerstedt
Κράνμπερι: Chelsea Tavares

Δημιουργός σειράς: Sue Rose

Τους υπότιτλους έκανε το στούντιο της Lumiere.
Στατιστικά Project:
1ος Κύκλος Ανεβασμένα: 09/13
2ος Κύκλος Ανεβασμένα: 09/15
3ος Κύκλος Ανεβασμένα: 13/13
Συνολικά Ανεβασμένα: 31/41
Πρόοδος Project: 75.6 %

Links

Season 1


Season 2


Season 3[b/]


Η σειρά ανεβαίνει αποκλειστικά για το TeenSpirit. Να μην προστεθεί αλλού.



Έχει επεξεργασθεί από τον/την Tsaklas στις Πεμ Ιουλ 28, 2016 4:28 am, 11 φορές συνολικά

Μοιραστείτε αυτή τη δημοσίευση στο:Excite BookmarksDiggRedditDel.icio.usGoogleLiveSlashdotNetscapeTechnoratiStumbleUponNewsvineFurlYahooSmarking

Δημοσίευση Την / Το Τετ Νοε 16, 2016 1:48 pm από adim

Ευχαριστώ!!!! Smile Smile Smile Smile

Δημοσίευση Την / Το Τετ Νοε 16, 2016 2:12 pm από adim

Έχει περιορισμούς για ελεύθερο κατέβασμα η σελίδα που οδηγεί το link και αν ναί ξέρετε ποιούς; Ευχαριστώ

Δημοσίευση Την / Το Παρ Νοε 18, 2016 5:27 pm από Tsaklas

Όχι.

Δημοσίευση Την / Το Κυρ Δεκ 11, 2016 4:15 pm από Maria_Mvrd

ευχαριστω!

Δημοσίευση Την / Το Παρ Δεκ 30, 2016 8:38 am από teliosmetonma

ty

Επισκόπηση προηγούμενης Θ.Ενότητας Επισκόπηση επόμενης Θ.Ενότητας Επιστροφή στην κορυφή Μήνυμα [Σελίδα 2 από 2]

Μετάβαση στη σελίδα : Επιστροφή  1, 2

Δικαιώματα σας στην κατηγορία αυτή
Δεν μπορείτε να απαντήσετε στα Θέματα αυτής της Δ.Συζήτησης