Teen Spirit

Ένα φόρουμ αποκλειστικά για νεανικές σειρές στα ελληνικά!


Μη Συνδεδεμενος Παρακαλώ συνδεθείτε ή εγγραφείτε

[MEGA] Princess Protection Program DVDRip (2009)

Επισκόπηση προηγούμενης Θ.Ενότητας Επισκόπηση επόμενης Θ.Ενότητας Πήγαινε κάτω Μήνυμα [Σελίδα 1 από 1]

avatar

Santo


Ultra Member
Ultra Member

Princess Protection Program



Περίληψη:
Τα πάνω κάτω έρχονται στην ζωή της Κάρτερ όταν ο πατέρας της, ο Ταγ/ρχης Μέισον του προγράμματος προστασίας πριγκιπισσών (μια μυστική οργάνωση που βοηθάει πριγκίπισσες) φέρνει την πριγκίπισσα Ροζαλίντα να μείνει μαζί τους. Η χώρα της Ροζαλίντας έπεσε στα χέρια ενός δικτάτορα,ο οποίος θα την κυνηγήσει μιας και είναι η μοναδική κληρονόμος του θρόνου. Θα πρέπει τώρα να μάθει να συμπεριφέρεται όπως όλα τα κορίτσια της ηλικίας της, για να μην αποκαλυφθεί η ταυτότητα της. Σ’αυτό θα την βοηθήσει η Κάρτερ άλλα δεν θα είναι καθόλου εύκολο να αποτάξει η Ροζαλίντα τους βασιλικούς της τρόπους.

Screenshots/Thumbnails:

Χαρακτηριστικά:
General
Complete name                  : Princess Protection Program (2009).mp4
Format                         : MPEG-4
Format profile                 : Base Media
Codec ID                       : isom
File size                      : 307 MiB
Duration                       : 1h 24mn
Overall bit rate mode          : Variable
Overall bit rate               : 507 Kbps
Encoded date                   : UTC 2013-08-30 11:13:14
Tagged date                    : UTC 2013-08-30 11:13:14

Video
ID                             : 1
Format                         : AVC
Format/Info                    : Advanced Video Codec
Format profile                 : High@L3.0
Format settings, CABAC         : Yes
Format settings, ReFrames      : 5 frames
Codec ID                       : avc1
Codec ID/Info                  : Advanced Video Coding
Duration                       : 1h 24mn
Bit rate                       : 462 Kbps
Maximum bit rate               : 2 547 Kbps
Width                          : 640 pixels
Height                         : 360 pixels
Display aspect ratio           : 16:9
Frame rate mode                : Constant
Frame rate                     : 29.970 fps
Color space                    : YUV
Chroma subsampling             : 4:2:0
Bit depth                      : 8 bits
Scan type                      : Progressive
Bits/(Pixel*Frame)             : 0.067
Stream size                    : 279 MiB (91%)
Title                          : /var/www/cgi-bin/uploads/01/00410/ecrthbwabrq7.h264 - Imported with GPAC 0.4.6-DEV (internal rev. 8 )
Writing library                : x264 core 118
Encoding settings              : cabac=1 / ref=5 / deblock=1:0:0 / analyse=0x3:0x113 / me=umh / subme=8 / psy=1 / psy_rd=1.00:0.00 / mixed_ref=1 / me_range=16 / chroma_me=1 / trellis=1 / 8x8dct=1 / cqm=0 / deadzone=21,11 / fast_pskip=1 / chroma_qp_offset=-2 / threads=12 / sliced_threads=0 / nr=0 / decimate=1 / interlaced=0 / bluray_compat=0 / constrained_intra=0 / bframes=3 / b_pyramid=2 / b_adapt=2 / b_bias=0 / direct=3 / weightb=1 / open_gop=0 / weightp=2 / keyint=250 / keyint_min=25 / scenecut=40 / intra_refresh=0 / rc_lookahead=50 / rc=crf / mbtree=1 / crf=24.0 / qcomp=0.60 / qpmin=0 / qpmax=69 / qpstep=4 / ip_ratio=1.40 / aq=1:1.00


Audio
ID                             : 2
Format                         : AAC
Format/Info                    : Advanced Audio Codec
Format profile                 : HE-AAC / LC
Codec ID                       : 40
Duration                       : 1h 24mn
Bit rate mode                  : Variable
Bit rate                       : 41.3 Kbps
Maximum bit rate               : 48.3 Kbps
Channel(s)                     : 1 channel
Channel positions              : Front: C
Sampling rate                  : 44.1 KHz / 22.05 KHz
Compression mode               : Lossy
Stream size                    : 25.0 MiB (8%)

Μεταγλωττιστές:
Η φωνές που ακούστηκαν ήταν:
Αφροδίτη Αντωνάκη
Μάρα Βλαχάκη
Ανδρέας Ευαγγελάτος
Φωτεινή Κωστοπούλου
Δημήτρης Δημόπουλος
Στέλιος Ψαρουδάκης
Μετάφραση: Λένα Μαραβέα
Στούντιο Ηχογράφησης: Sierra Post

           
Link:


Πρέπει να κάνετε ένα σχόλιο για να δείτε το link.
Το αρχικό ανέβασμα δεν είναι δικό μου.

ΚΑΛΗ ΘΕΑΣΗ Very Happy



Έχει επεξεργασθεί από τον/την Santo στις Σαβ Ιαν 24, 2015 7:21 pm, 1 φορά

Μοιραστείτε αυτή τη δημοσίευση στο:Excite BookmarksDiggRedditDel.icio.usGoogleLiveSlashdotNetscapeTechnoratiStumbleUponNewsvineFurlYahooSmarking

Δημοσίευση Την / Το Πεμ Νοε 13, 2014 9:08 am από BMan

Eυχαριστώ

avatar

Δημοσίευση Την / Το Πεμ Νοε 13, 2014 4:18 pm από Alex

Ευχαριστώ!

Δημοσίευση Την / Το Τρι Νοε 18, 2014 11:59 am από TB87

ευχαριστω

Δημοσίευση Την / Το Κυρ Δεκ 14, 2014 10:04 pm από ihaveyouall

Ευχαριστώ!

avatar

Δημοσίευση Την / Το Πεμ Ιουν 18, 2015 7:49 pm από tails-girl

Πολύ ωραία ταινία, ευχαριστώ Smile

Δημοσίευση Την / Το Κυρ Ιουν 21, 2015 8:35 am από SD2

avatar

Δημοσίευση Την / Το Πεμ Ιουν 25, 2015 1:45 pm από marakilovaki

avatar

Δημοσίευση Την / Το Τετ Ιουλ 08, 2015 1:41 am από Kim Possible

avatar

Δημοσίευση Την / Το Δευ Ιουλ 13, 2015 11:21 pm από marios121

Ευχαριστώ

Δημοσίευση Την / Το Σαβ Σεπ 19, 2015 2:18 pm από georgenanas

thanks

avatar

Δημοσίευση Την / Το Τρι Νοε 03, 2015 1:49 am από giwrgos00

ty

avatar

Δημοσίευση Την / Το Σαβ Ιαν 30, 2016 11:01 pm από AUSTIN B.

Thx

avatar

Δημοσίευση Την / Το Δευ Φεβ 15, 2016 8:30 pm από stefania12

ορεα τενια

Δημοσίευση Την / Το Σαβ Μαρ 12, 2016 9:51 pm από disney12

teleio

avatar

Δημοσίευση Την / Το Τρι Μαϊος 24, 2016 12:14 am από tironsi74

25.0 MB για 1h 24mn audio? Εύχομαι να μην έχει καταστραφεί ο ήχος!

avatar

Δημοσίευση Την / Το Τετ Μαϊος 25, 2016 7:45 pm από Santo

[Πρέπει να είστε εγγεγραμμένοι και συνδεδεμένοι για να δείτε αυτόν το σύνδεσμο.] έγραψε:25.0 MB για 1h 24mn audio? Εύχομαι να μην έχει καταστραφεί ο ήχος!
Δε νομίζω αλλά αν έχει συμβεί πες το μου να το κοιτάξω.

avatar

Δημοσίευση Την / Το Πεμ Μαϊος 26, 2016 2:37 am από tironsi74

[Πρέπει να είστε εγγεγραμμένοι και συνδεδεμένοι για να δείτε αυτόν το σύνδεσμο.] έγραψε:
[Πρέπει να είστε εγγεγραμμένοι και συνδεδεμένοι για να δείτε αυτόν το σύνδεσμο.] έγραψε:25.0 MB για 1h 24mn audio? Εύχομαι να μην έχει καταστραφεί ο ήχος!
Δε νομίζω αλλά αν έχει συμβεί πες το μου να το κοιτάξω.

Το λιγοτερο επιτρεπτο για δυο καναλια ειναι 128 kbps απ`οτι ξερω...αν το εχεις ομως ασυμπιεστο θα το ηθελα να το συνχρονισω με βιντεο HD 1080p.

avatar

Δημοσίευση Την / Το Παρ Μαϊος 27, 2016 5:57 pm από Santo

[Πρέπει να είστε εγγεγραμμένοι και συνδεδεμένοι για να δείτε αυτόν το σύνδεσμο.] έγραψε:
[Πρέπει να είστε εγγεγραμμένοι και συνδεδεμένοι για να δείτε αυτόν το σύνδεσμο.] έγραψε:
[Πρέπει να είστε εγγεγραμμένοι και συνδεδεμένοι για να δείτε αυτόν το σύνδεσμο.] έγραψε:25.0 MB για 1h 24mn audio? Εύχομαι να μην έχει καταστραφεί ο ήχος!
Δε νομίζω αλλά αν έχει συμβεί πες το μου να το κοιτάξω.

Το λιγοτερο επιτρεπτο για δυο καναλια ειναι 128 kbps απ`οτι ξερω...αν το εχεις ομως ασυμπιεστο θα το ηθελα να το συνχρονισω με βιντεο HD 1080p.

Όχι, δε το έχω. Neutral

avatar

Δημοσίευση Την / Το Πεμ Σεπ 15, 2016 12:19 am από i.tzer

[Πρέπει να είστε εγγεγραμμένοι και συνδεδεμένοι για να δείτε αυτόν το σύνδεσμο.] έγραψε:Eυχαριστώ
thanks

avatar

Δημοσίευση Την / Το Τρι Μαρ 21, 2017 1:20 am από kitty

avatar

Δημοσίευση Την / Το Πεμ Ιουλ 06, 2017 7:16 am από cat2

Razz :-<

avatar

Δημοσίευση Την / Το Πεμ Σεπ 14, 2017 8:02 pm από MsterXgeo

avatar

Δημοσίευση Την / Το Παρ Νοε 17, 2017 10:11 pm από elmi

ευχαριστω

Επισκόπηση προηγούμενης Θ.Ενότητας Επισκόπηση επόμενης Θ.Ενότητας Επιστροφή στην κορυφή Μήνυμα [Σελίδα 1 από 1]

Δικαιώματα σας στην κατηγορία αυτή
Δεν μπορείτε να απαντήσετε στα Θέματα αυτής της Δ.Συζήτησης