Teen Spirit

Ένα φόρουμ αποκλειστικά για νεανικές σειρές στα ελληνικά!


Μη Συνδεδεμενος Παρακαλώ συνδεθείτε ή εγγραφείτε

[MEGA] The 12 Dogs of Christmas DVDRip (2005)

Επισκόπηση προηγούμενης Θ.Ενότητας Επισκόπηση επόμενης Θ.Ενότητας Πήγαινε κάτω Μήνυμα [Σελίδα 1 από 1]

avatar

NickSplat2


Medium Member
Medium Member

ΚΑΛΑ ΧΡΙΣΤΟΥΓΕΝΝΑ!!     



Είναι Χριστούγεννα στο Πίτσμπουργκ του 1930 και η δωδεκάχρονη ορφανή Emma έχει σταλεί στη θεία της Delores στο Doverville. Κατά την άφιξή της η Emma βρίσκει τον εαυτό της στη μέση ενός πολέμου σχετικά με σκυλιά. Από τη μια πλευρά είναι ο Δήμαρχος Νόμπελ Doyle και το Δημοτικό Συμβούλιο που είναι αποφασισμένοι να διατηρήσουν το νόμο «Δεν επιτρέπονται τα σκυλιά» στο Doverville. Από την άλλη πλευρά είναι η Cathy Stevens που έχει ήδη λάβει σκύλους ανθρώπων από όλη τη χώρα, δεδομένου ότι δεν μπορούν πλέον να τους συντηρήσουν οικονομικά για να τους κρατήσει. Με τη βοήθεια των συντρόφων του σχολείου της και 60 σκυλιά η Emma θα προσπαθεί να κερδίσει το Δήμαρχο και τους πολίτες της Doverville με μια εορταστική παράσταση «Τα Δώδεκα Σκυλιά των Χριστουγέννων».
Την παρούσα ταινία έχω ριπάρει από DVD της The Pinwest Company (πρώην Media Vista) με Dual Audio + ελληνικούς υπότιτλους και θα την ανεβάσω σύντομα!!

ΜΕΤΑΓΛΩΤΤΙΣΗ:
Βίβιαν Βαλσάμη
Ελένη Κεφαλοπούλου
Ευτυχία Φαναριώτη
Κωνσταντίνα Μακρή
Ντίνα Μιχαηλίδου
Ισίδωρος Σταμούλης
Σπύρος Μπιμπίλας
Αυγερινός Σουλόπουλος
Αλέξανδρος Πετρίδης
Θοδωρής Προκοπίου

Σκηνοθετική επιμέλεια: Σπύρος Μπιμπίλας
Η μεταγλώττιση έγινε στα στούντιο της Οπτικοακουστικής
SCREENSHORTS:
MEDIA INFO:
General
Complete name                            : C:\Greek [DTV-VCD-DVD Ripped] Cartoons\12 Dogs Of Christmas-1.m4v
Format                                   : MPEG-4
Format profile                           : Base Media / Version 2
Codec ID                                 : mp42
File size                                : 1.29 GiB
Duration                                 : 1h 42mn
Overall bit rate mode                    : Variable
Overall bit rate                         : 1 791 Kbps
Encoded date                             : UTC 2036-02-06 06:28:16
Tagged date                              : UTC 2036-02-06 06:28:16
Writing application                      : HandBrake 0.10.2 2015060900

Video
ID                                       : 1
Format                                   : AVC
Format/Info                              : Advanced Video Codec
Format profile                           : Main@L4.0
Format settings, CABAC                   : Yes
Format settings, ReFrames                : 4 frames
Codec ID                                 : avc1
Codec ID/Info                            : Advanced Video Coding
Duration                                 : 1h 42mn
Bit rate                                 : 1 458 Kbps
Width                                    : 706 pixels
Height                                   : 576 pixels
Display aspect ratio                     : 4:3
Original display aspect ratio            : 4:3
Frame rate mode                          : Constant
Frame rate                               : 25.000 fps
Color space                              : YUV
Chroma subsampling                       : 4:2:0
Bit depth                                : 8 bits
Scan type                                : Progressive
Bits/(Pixel*Frame)                       : 0.143
Stream size                              : 1.05 GiB (81%)
Writing library                          : x264 core 142 r2479 dd79a61
Encoding settings                        : cabac=1 / ref=1 / deblock=1:0:0 / analyse=0x1:0x111 / me=hex / subme=2 / psy=1 / psy_rd=1.00:0.00 / mixed_ref=0 / me_range=16 / chroma_me=1 / trellis=0 / 8x8dct=0 / cqm=0 / deadzone=21,11 / fast_pskip=1 / chroma_qp_offset=0 / threads=3 / lookahead_threads=1 / sliced_threads=0 / nr=0 / decimate=1 / interlaced=0 / bluray_compat=0 / constrained_intra=0 / bframes=3 / b_pyramid=2 / b_adapt=1 / b_bias=0 / direct=1 / weightb=1 / open_gop=0 / weightp=1 / keyint=250 / keyint_min=25 / scenecut=40 / intra_refresh=0 / rc_lookahead=10 / rc=crf / mbtree=1 / crf=20.0 / qcomp=0.60 / qpmin=0 / qpmax=69 / qpstep=4 / vbv_maxrate=20000 / vbv_bufsize=25000 / crf_max=0.0 / nal_hrd=none / filler=0 / ip_ratio=1.40 / aq=1:1.00
Encoded date                             : UTC 2036-02-06 06:28:16
Tagged date                              : UTC 2036-02-06 06:28:16
Color primaries                          : BT.601 PAL
Transfer characteristics                 : BT.709
Matrix coefficients                      : BT.601

Audio #1
ID                                       : 2
Format                                   : AAC
Format/Info                              : Advanced Audio Codec
Format profile                           : LC
Codec ID                                 : 40
Duration                                 : 1h 42mn
Bit rate mode                            : Variable
Bit rate                                 : 160 Kbps
Channel count                            : 2 channels
Channel positions                        : Front: L R
Sampling rate                            : 48.0 KHz
Compression mode                         : Lossy
Delay relative to video                  : 80ms
Stream size                              : 118 MiB (9%)
Title                                    : Stereo
Language                                 : Greek
Encoded date                             : UTC 2036-02-06 06:28:16
Tagged date                              : UTC 2036-02-06 06:28:16

Audio #2
ID                                       : 3
Format                                   : AAC
Format/Info                              : Advanced Audio Codec
Format profile                           : LC
Codec ID                                 : 40
Duration                                 : 1h 42mn
Bit rate mode                            : Variable
Bit rate                                 : 161 Kbps
Channel count                            : 2 channels
Channel positions                        : Front: L R
Sampling rate                            : 48.0 KHz
Compression mode                         : Lossy
Delay relative to video                  : 80ms
Stream size                              : 118 MiB (9%)
Title                                    : Stereo
Language                                 : English
Encoded date                             : UTC 2036-02-06 06:28:16
Tagged date                              : UTC 2036-02-06 06:28:16

Text
ID                                       : 4
Format                                   : mp4s
Codec ID                                 : E0
Duration                                 : 1h 39mn
Bit rate mode                            : Variable
Bit rate                                 : 3 254 bps
Delay relative to video                  : 80ms
Stream size                              : 2.31 MiB (0%)
Language                                 : Greek
Encoded date                             : UTC 2036-02-06 06:28:16
Tagged date                              : UTC 2036-02-06 06:28:16

Menu
ID                                       : 5
Codec ID                                 : text
Duration                                 : 1h 42mn
Language                                 : English
Encoded date                             : UTC 2036-02-06 06:28:16
Tagged date                              : UTC 2036-02-06 06:28:16
Bit rate mode                            : CBR

LINK:



Έχει επεξεργασθεί από τον/την NickSplat2 στις Παρ Νοε 27, 2015 10:36 pm, 1 φορά (Λόγος της επεξεργασίας : Προσθήκη του συνδέσμου της ταινίας.)

Μοιραστείτε αυτή τη δημοσίευση στο:Excite BookmarksDiggRedditDel.icio.usGoogleLiveSlashdotNetscapeTechnoratiStumbleUponNewsvineFurlYahooSmarking

avatar

Δημοσίευση Την / Το Παρ Νοε 27, 2015 1:03 am από teo95

Σ' ευχαριστώ πολύ!! ανυπομονώ Very Happy

avatar

Δημοσίευση Την / Το Παρ Νοε 27, 2015 10:36 pm από NickSplat2

ΠΡΟΣΤΕΘΗΚΕ ΤΟ LINK!!

avatar

Δημοσίευση Την / Το Παρ Νοε 27, 2015 11:11 pm από gazakias1970

Ωραίος!

Δημοσίευση Την / Το Τρι Δεκ 01, 2015 6:18 am από TB87

ευχαριστω

avatar

Δημοσίευση Την / Το Σαβ Δεκ 12, 2015 11:18 am από animationfan

Ευχαριστω

avatar

Δημοσίευση Την / Το Παρ Μαϊος 13, 2016 5:46 pm από apollonara

Ευχαριστω

avatar

Δημοσίευση Την / Το Δευ Μαϊος 23, 2016 11:40 pm από tironsi74

Thanks

avatar

Δημοσίευση Την / Το Τρι Σεπ 06, 2016 1:28 am από AUSTIN B.

thx

avatar

Δημοσίευση Την / Το Τετ Σεπ 07, 2016 12:32 am από AUSTIN B.

η ταινια αυτη δεν ειναι στα ελληνικα ουτε εχει υποτιτλους...παρακαλω διορθωστε το..ΑΑΑΑ..επισης εαν μπορειτε η εχει κανεις ανεβαστε το Snow Buddies στα ελληνικα..και γενικα οσες περισσοτερες ταινιες με σκυλους μπορειτε..παρακαλω..

avatar

Δημοσίευση Την / Το Τρι Μαρ 21, 2017 1:21 am από kitty

Δημοσίευση Την / Το Δευ Απρ 17, 2017 7:46 pm από SD2

ty

avatar

Δημοσίευση Την / Το Σαβ Απρ 29, 2017 12:35 pm από teliosmetonma

ty

Επισκόπηση προηγούμενης Θ.Ενότητας Επισκόπηση επόμενης Θ.Ενότητας Επιστροφή στην κορυφή Μήνυμα [Σελίδα 1 από 1]

Δικαιώματα σας στην κατηγορία αυτή
Δεν μπορείτε να απαντήσετε στα Θέματα αυτής της Δ.Συζήτησης