Teen Spirit

Ένα φόρουμ αποκλειστικά για νεανικές σειρές στα ελληνικά!


Μη Συνδεδεμενος Παρακαλώ συνδεθείτε ή εγγραφείτε

[MEGA] Zapped SATRip (2014)

Μετάβαση στη σελίδα : Επιστροφή  1, 2

Επισκόπηση προηγούμενης Θ.Ενότητας Επισκόπηση επόμενης Θ.Ενότητας Πήγαινε κάτω Μήνυμα [Σελίδα 2 από 2]

avatar

Santo


Ultra Member
Ultra Member

Zapped



Περίληψη:
Η Zoey Stevens, μια ικανότατη χορεύτρια και μαθήτρια του άριστα, βρίσκεται κολλημένη σε ένα καινούριο γυμνάσιο, σε μια άπειρη και αδέξια ομάδα χορού και με έναν καινούριο πατριό αφού η μαμά της ξαναπαντρεύεται. Σαν να μην έφτανε αυτό, αναγκάζεται να συζεί με τρία σαματατζίδικα ετεροθαλή αδέλφια κι έναν ανεξέλεγκτο σκύλο! Όμως, τα πράγματα αρχίζουν κι αλλάζουν μόλις κατεβάσει μια εφαρμογή εκπαίδευσης σκύλου στο smartphone της, κάτι που κάνει να συμβαίνουν διάφορα παράξενα πράγματα σε όλα τα αγόρια γύρω της…

Screenshots/Thumbnails:

Χαρακτηριστικά:
General
Complete name                  : Zapped (2014).mp4
Format                         : MPEG-4
Format profile                 : Base Media
Codec ID                       : isom
File size                      : 433 MiB
Duration                       : 1h 29mn
Overall bit rate mode          : Variable
Overall bit rate               : 674 Kbps
Writing application            : Lavf54.59.106

Video
ID                             : 1
Format                         : AVC
Format/Info                    : Advanced Video Codec
Format profile                 : High@L3.0
Format settings, CABAC         : Yes
Format settings, ReFrames      : 4 frames
Codec ID                       : avc1
Codec ID/Info                  : Advanced Video Coding
Duration                       : 1h 29mn
Bit rate                       : 571 Kbps
Width                          : 640 pixels
Height                         : 360 pixels
Display aspect ratio           : 16:9
Frame rate mode                : Constant
Frame rate                     : 25.000 fps
Color space                    : YUV
Chroma subsampling             : 4:2:0
Bit depth                      : 8 bits
Scan type                      : Progressive
Bits/(Pixel*Frame)             : 0.099
Stream size                    : 367 MiB (85%)
Writing library                : x264 core 130
Encoding settings              : cabac=1 / ref=1 / deblock=1:0:0 / analyse=0x3:0x3 / me=dia / subme=1 / psy=1 / psy_rd=1.00:0.00 / mixed_ref=0 / me_range=16 / chroma_me=1 / trellis=0 / 8x8dct=1 / cqm=0 / deadzone=21,11 / fast_pskip=1 / chroma_qp_offset=0 / threads=36 / lookahead_threads=2 / sliced_threads=0 / nr=0 / decimate=1 / interlaced=0 / bluray_compat=0 / constrained_intra=0 / bframes=3 / b_pyramid=2 / b_adapt=1 / b_bias=0 / direct=1 / weightb=1 / open_gop=0 / weightp=1 / keyint=250 / keyint_min=25 / scenecut=40 / intra_refresh=0 / rc_lookahead=0 / rc=crf / mbtree=0 / crf=24.0 / qcomp=0.60 / qpmin=0 / qpmax=69 / qpstep=4 / vbv_maxrate=2500 / vbv_bufsize=5000 / crf_max=0.0 / nal_hrd=none / ip_ratio=1.40 / pb_ratio=1.30 / aq=1:1.00

Audio
ID                             : 2
Format                         : AAC
Format/Info                    : Advanced Audio Codec
Format profile                 : LC
Codec ID                       : 40
Duration                       : 1h 29mn
Duration_LastFrame             : -10ms
Bit rate mode                  : Variable
Bit rate                       : 96.0 Kbps
Maximum bit rate               : 2 500 Kbps
Channel(s)                     : 2 channels
Channel positions              : Front: L R
Sampling rate                  : 44.1 KHz
Compression mode               : Lossy
Stream size                    : 61.8 MiB (14%)

Μεταγλωττιστές:
Η φωνές που ακούστηκαν ήταν:
Βασιλική Κατσικερού
Θάνος Χαμπέρης
Θεοδώρα Παπαϊωάννου
Ειρήνη Τσίγκα
Δημήτρης Σάρλος
Δάφνη Μανούσου
Χρήστος Φωτινόπουλος
Δημήτρης Κατσαρός
Μετάφραση: Δημήτρης Σάρλος
Στούντιο Ηχογράφησης: Sierra Post

Link:


Πρέπει να κάνετε ένα σχόλιο για να δείτε το link.
Το αρχικό ανέβασμα δεν είναι δικό μου.

ΚΑΛΗ ΘΕΑΣΗ Very Happy



Έχει επεξεργασθεί από τον/την Santo στις Δευ Φεβ 19, 2018 4:57 pm, 5 φορές συνολικά

Μοιραστείτε αυτή τη δημοσίευση στο:diggdeliciousredditstumbleuponslashdotyahoogooglelive

avatar

Δημοσίευση Την / Το Παρ Ιαν 26, 2018 7:00 pm από l0vegrtoons

Ευχαριστώ!

avatar

Δημοσίευση Την / Το Παρ Ιαν 26, 2018 8:02 pm από l0vegrtoons

Ευχαριστώ!

avatar

Δημοσίευση Την / Το Παρ Ιαν 26, 2018 8:03 pm από l0vegrtoons

Ευχαριστώ!

avatar

Δημοσίευση Την / Το Δευ Ιαν 29, 2018 2:49 pm από beatrikh2906

zapped

avatar

Δημοσίευση Την / Το Σαβ Φεβ 03, 2018 1:36 pm από navarro

Thanks!

avatar

Δημοσίευση Την / Το Τετ Απρ 04, 2018 6:12 pm από antonis

tysm

avatar

Δημοσίευση Την / Το Σαβ Αυγ 11, 2018 3:54 am από Larry

ευχαριστω

avatar

Δημοσίευση Την / Το Πεμ Αυγ 30, 2018 11:34 pm από stefania12

κκ

avatar

Δημοσίευση Την / Το Πεμ Αυγ 30, 2018 11:35 pm από stefania12

κκ

avatar

Δημοσίευση Την / Το Τρι Σεπ 11, 2018 12:47 am από Thanasis1990

thanks

avatar

Δημοσίευση Την / Το Τετ Σεπ 19, 2018 6:24 pm από 12041912

Επισκόπηση προηγούμενης Θ.Ενότητας Επισκόπηση επόμενης Θ.Ενότητας Επιστροφή στην κορυφή Μήνυμα [Σελίδα 2 από 2]

Μετάβαση στη σελίδα : Επιστροφή  1, 2

Δικαιώματα σας στην κατηγορία αυτή
Δεν μπορείτε να απαντήσετε στα Θέματα αυτής της Δ.Συζήτησης