Teen Spirit

Ένα φόρουμ αποκλειστικά για νεανικές σειρές στα ελληνικά!


Μη Συνδεδεμενος Παρακαλώ συνδεθείτε ή εγγραφείτε

[MEGA] Good Luck Charlie: It's Christmas! SATRip (2011)

Επισκόπηση προηγούμενης Θ.Ενότητας Επισκόπηση επόμενης Θ.Ενότητας Πήγαινε κάτω Μήνυμα [Σελίδα 1 από 1]

avatar

Santo


Ultra Member
Ultra Member

Καλή Τύχη Τσάρλι: Η Ταινία



Περίληψη:
Η οικογένεια Duncan ετοιμάζεται για τα Χριστούγεννα, κάνοντας ένα ταξίδι στο Palm Springs. Τα πράγματα όμως θα αλλάξουν όταν η Teddy θα προκαλέσει ένα μικρό χωρισμό στην οικογένεια.

Screenshots/Thumbnails:

Χαρακτηριστικά:
General
Complete name                  : Good Luck Charlie The Trip the Movie.VOB
Format                         : MPEG-PS
File size                      : 895 MiB
Duration                       : 1h 16mn
Overall bit rate mode          : Variable
Overall bit rate               : 1 627 Kbps

Video
ID                             : 224 (0xE0)
Format                         : MPEG Video
Format version                 : Version 2
Format profile                 : Main@Main
Format settings, BVOP          : Yes
Format settings, Matrix        : Custom
Format settings, GOP           : M=3, N=12
Format settings, picture struc : Frame
Duration                       : 1h 16mn
Bit rate mode                  : Variable
Bit rate                       : 1 338 Kbps
Maximum bit rate               : 1 556 Kbps
Width                          : 352 pixels
Height                         : 576 pixels
Display aspect ratio           : 1.738
Frame rate                     : 25.000 fps
Standard                       : PAL
Color space                    : YUV
Chroma subsampling             : 4:2:0
Bit depth                      : 8 bits
Scan type                      : Interlaced
Scan order                     : Top Field First
Compression mode               : Lossy
Bits/(Pixel*Frame)             : 0.264
Time code of first frame       : 00:00:00:00
Time code source               : Group of pictures header
Stream size                    : 736 MiB (82%)

Audio
ID                             : 189 (0xBD)-128 (0x80)
Format                         : AC-3
Format/Info                    : Audio Coding 3
Mode extension                 : CM (complete main)
Format settings, Endianness    : Big
Muxing mode                    : DVD-Video
Duration                       : 1h 16mn
Bit rate mode                  : Constant
Bit rate                       : 256 Kbps
Channel(s)                     : 2 channels
Channel positions              : Front: L R
Sampling rate                  : 48.0 KHz
Bit depth                      : 16 bits
Compression mode               : Lossy
Stream size                    : 141 MiB (16%)

Μεταγλωττιστές:
Η φωνές που ακούστηκαν ήταν:
Ακίνδυνος Γκίκας
Χαρά Ζησιμάτου
Άντρια Ράπτη
Γιώργος Ματαράγκας
Στέλιος Ψαρουδάκης
Στούντιο Ηχογράφησης: Sierra Post

Link:


Πρέπει να κάνετε ένα σχόλιο για να δείτε το link.
Το αρχικό ανέβασμα δεν είναι δικό μου.

KΑΛΗ ΘΕΑΣΗ Very Happy



Έχει επεξεργασθεί από τον/την Santo στις Σαβ Ιαν 24, 2015 7:24 pm, 1 φορά

Μοιραστείτε αυτή τη δημοσίευση στο:Excite BookmarksDiggRedditDel.icio.usGoogleLiveSlashdotNetscapeTechnoratiStumbleUponNewsvineFurlYahooSmarking

avatar

Δημοσίευση Την / Το Κυρ Νοε 16, 2014 1:10 pm από Alex

Ευχαριστώ πολύ! Smile

avatar

Δημοσίευση Την / Το Κυρ Νοε 16, 2014 2:11 pm από redlegend

Ευχαριστώ

Δημοσίευση Την / Το Δευ Νοε 17, 2014 11:10 am από olympiakospower

Ευχαριστω!!

Δημοσίευση Την / Το Δευ Νοε 17, 2014 2:41 pm από fdfbill

Ευχαριστώ !

avatar

Δημοσίευση Την / Το Δευ Νοε 17, 2014 3:30 pm από savvas

THANKS

Δημοσίευση Την / Το Τρι Νοε 18, 2014 12:00 pm από TB87

ευχαριστω

avatar

Δημοσίευση Την / Το Κυρ Νοε 23, 2014 2:56 am από lef0

Ευχαριστω!!

Δημοσίευση Την / Το Πεμ Δεκ 11, 2014 7:06 am από manousakas

Ευχαριστώ

Δημοσίευση Την / Το Κυρ Δεκ 14, 2014 8:38 pm από ihaveyouall

Ευχαριστω!! Very Happy

Δημοσίευση Την / Το Δευ Ιουν 15, 2015 8:11 am από SD2

thanks

avatar

Δημοσίευση Την / Το Δευ Ιουν 15, 2015 11:36 am από Nikos7Gauros

ευχαριστούμε πολύ!! Very Happy Very Happy

avatar

Δημοσίευση Την / Το Κυρ Αυγ 16, 2015 12:32 am από Kaskander

thnx

avatar

Δημοσίευση Την / Το Πεμ Νοε 05, 2015 10:46 am από giwrgos00

ty

avatar

Δημοσίευση Την / Το Σαβ Νοε 21, 2015 7:04 pm από john500

ευχαριστω πολυ Very Happy

avatar

Δημοσίευση Την / Το Κυρ Νοε 22, 2015 11:33 am από Tutorial

Ευχαριστώ!

Δημοσίευση Την / Το Παρ Δεκ 18, 2015 10:25 am από disney12

teleio

avatar

Δημοσίευση Την / Το Πεμ Φεβ 18, 2016 2:03 pm από cronaldo77

ty

avatar

Δημοσίευση Την / Το Κυρ Απρ 10, 2016 1:39 pm από Jimis Wolf

Thnks

avatar

Δημοσίευση Την / Το Κυρ Μαϊος 22, 2016 10:34 am από Dra Dro

Thanks

avatar

Δημοσίευση Την / Το Τρι Μαϊος 24, 2016 12:05 am από tironsi74

Συντομα HD!!!

avatar

Δημοσίευση Την / Το Τρι Μαϊος 31, 2016 7:32 am από Jimis10

Thnks

avatar

Δημοσίευση Την / Το Τρι Δεκ 13, 2016 5:13 pm από stefanosk

thanks!!

avatar

Δημοσίευση Την / Το Σαβ Μαϊος 06, 2017 8:52 pm από teliosmetonma

Ty

Δημοσίευση Την / Το Σαβ Ιουν 10, 2017 2:58 pm από Επισκέπτης

θενξ

Επισκόπηση προηγούμενης Θ.Ενότητας Επισκόπηση επόμενης Θ.Ενότητας Επιστροφή στην κορυφή Μήνυμα [Σελίδα 1 από 1]

Δικαιώματα σας στην κατηγορία αυτή
Δεν μπορείτε να απαντήσετε στα Θέματα αυτής της Δ.Συζήτησης