Teen Spirit

Ένα φόρουμ αποκλειστικά για νεανικές σειρές στα ελληνικά!


Μη Συνδεδεμενος Παρακαλώ συνδεθείτε ή εγγραφείτε

[MEGA] Good Luck Charlie: It's Christmas! SATRip (2011)

Μετάβαση στη σελίδα : Επιστροφή  1, 2

Επισκόπηση προηγούμενης Θ.Ενότητας Επισκόπηση επόμενης Θ.Ενότητας Πήγαινε κάτω Μήνυμα [Σελίδα 2 από 2]

avatar

Santo


Ultra Member
Ultra Member

Καλή Τύχη Τσάρλι: Η Ταινία



Περίληψη:
Η οικογένεια Duncan ετοιμάζεται για τα Χριστούγεννα, κάνοντας ένα ταξίδι στο Palm Springs. Τα πράγματα όμως θα αλλάξουν όταν η Teddy θα προκαλέσει ένα μικρό χωρισμό στην οικογένεια.

Screenshots/Thumbnails:

Χαρακτηριστικά:
General
Complete name                  : Good Luck Charlie The Trip the Movie.VOB
Format                         : MPEG-PS
File size                      : 895 MiB
Duration                       : 1h 16mn
Overall bit rate mode          : Variable
Overall bit rate               : 1 627 Kbps

Video
ID                             : 224 (0xE0)
Format                         : MPEG Video
Format version                 : Version 2
Format profile                 : Main@Main
Format settings, BVOP          : Yes
Format settings, Matrix        : Custom
Format settings, GOP           : M=3, N=12
Format settings, picture struc : Frame
Duration                       : 1h 16mn
Bit rate mode                  : Variable
Bit rate                       : 1 338 Kbps
Maximum bit rate               : 1 556 Kbps
Width                          : 352 pixels
Height                         : 576 pixels
Display aspect ratio           : 1.738
Frame rate                     : 25.000 fps
Standard                       : PAL
Color space                    : YUV
Chroma subsampling             : 4:2:0
Bit depth                      : 8 bits
Scan type                      : Interlaced
Scan order                     : Top Field First
Compression mode               : Lossy
Bits/(Pixel*Frame)             : 0.264
Time code of first frame       : 00:00:00:00
Time code source               : Group of pictures header
Stream size                    : 736 MiB (82%)

Audio
ID                             : 189 (0xBD)-128 (0x80)
Format                         : AC-3
Format/Info                    : Audio Coding 3
Mode extension                 : CM (complete main)
Format settings, Endianness    : Big
Muxing mode                    : DVD-Video
Duration                       : 1h 16mn
Bit rate mode                  : Constant
Bit rate                       : 256 Kbps
Channel(s)                     : 2 channels
Channel positions              : Front: L R
Sampling rate                  : 48.0 KHz
Bit depth                      : 16 bits
Compression mode               : Lossy
Stream size                    : 141 MiB (16%)

Μεταγλωττιστές:
Η φωνές που ακούστηκαν ήταν:
Ακίνδυνος Γκίκας
Χαρά Ζησιμάτου
Άντρια Ράπτη
Γιώργος Ματαράγκας
Στέλιος Ψαρουδάκης
Στούντιο Ηχογράφησης: Sierra Post

Link:


Πρέπει να κάνετε ένα σχόλιο για να δείτε το link.
Το αρχικό ανέβασμα δεν είναι δικό μου.

KΑΛΗ ΘΕΑΣΗ Very Happy



Έχει επεξεργασθεί από τον/την Santo στις Σαβ Ιαν 24, 2015 7:24 pm, 1 φορά

Μοιραστείτε αυτή τη δημοσίευση στο:diggdeliciousredditstumbleuponslashdotyahoogooglelive

avatar

Δημοσίευση Την / Το Κυρ Φεβ 04, 2018 5:51 pm από navarro

Thanks!

avatar

Δημοσίευση Την / Το Κυρ Μαρ 25, 2018 1:13 am από matadorGR

tnx

avatar

Δημοσίευση Την / Το Τρι Μαρ 27, 2018 9:12 am από NIKKAR

thanks

avatar

Δημοσίευση Την / Το Τετ Απρ 04, 2018 5:13 pm από antonis

c

avatar

Δημοσίευση Την / Το Τετ Απρ 04, 2018 5:13 pm από antonis

c

avatar

Δημοσίευση Την / Το Σαβ Ιουν 02, 2018 4:07 pm από NickFox109

thanks

avatar

Δημοσίευση Την / Το Σαβ Ιουν 30, 2018 1:23 pm από l0vegrtoons

Ευχαριστω!!

Επισκόπηση προηγούμενης Θ.Ενότητας Επισκόπηση επόμενης Θ.Ενότητας Επιστροφή στην κορυφή Μήνυμα [Σελίδα 2 από 2]

Μετάβαση στη σελίδα : Επιστροφή  1, 2

Δικαιώματα σας στην κατηγορία αυτή
Δεν μπορείτε να απαντήσετε στα Θέματα αυτής της Δ.Συζήτησης