Teen Spirit

Ένα φόρουμ αποκλειστικά για νεανικές σειρές στα ελληνικά!


Μη Συνδεδεμενος Παρακαλώ συνδεθείτε ή εγγραφείτε

[MEGA] Drake & Josh DTVRip (2004) [COMPLETE SERIES]

Μετάβαση στη σελίδα : Επιστροφή  1, 2

Επισκόπηση προηγούμενης Θ.Ενότητας Επισκόπηση επόμενης Θ.Ενότητας Πήγαινε κάτω Μήνυμα [Σελίδα 2 από 2]

avatar

Tsaklas


Admin
Admin
http://teenspirit.forumgreek.com

Ολοκληρώθηκε με τα S04E16,S04E20! Ελέγξτε τον φάκελο!

Στην κωμική αυτή σειρά ο Drake και ο Josh είναι δύο teenagers που δεν έχουν σχεδόν τίποτα κοινό – μέχρι που οι γονείς των δύο αποφασίζουν να παντρευτούν!

Τώρα, τα δύο αυτά παιδιά, αναγκάζονται να μάθουν να ζουν μαζί, δημιουργώντας ένα πολύ αστείο αποτέλεσμα.

Μια από τις καλύτερες νεανικές σειρές του Nickelodeon κατά την γνώμη μου, αξίζει να την δείτε όλοι.
Τα επεισόδια είναι TVRip και uploads του μεγάλου JasonC, ο μοναδικός που ασχολήθηκε με τις νεανικές σειρές του Nickelodeon στο διαδίκτυο! Τα επεισόδια που του έλειπαν, δηλαδή τα: S02E04, S04E03, S04E11, S04E12, S04E14, S04E15, S04E16, S04E20 τα πρόσθεσα από δικές μου εγγραφές!



Χαρακτηριστικά:
General
Complete name                    : H:\1 EPISODES\Drake & Josh\Season 4\Drake & Josh S04E05 Who's Got GameHD.mp4
Format                           : MPEG-4
Format profile                   : Base Media
Codec ID                         : isom
File size                        : 170 MiB
Duration                         : 23mn 29s
Overall bit rate                 : 1 012 Kbps
Encoded date                     : UTC 2014-09-07 00:30:08
Tagged date                      : UTC 2014-09-07 00:30:08
Writing application              : FormatFactory : [Πρέπει να είστε εγγεγραμμένοι και συνδεδεμένοι για να δείτε αυτόν το σύνδεσμο.]

Video
ID                               : 1
Format                           : AVC
Format/Info                      : Advanced Video Codec
Format profile                   : High@L2.1
Format settings, CABAC           : No
Format settings, ReFrames        : 1 frame
Codec ID                         : avc1
Codec ID/Info                    : Advanced Video Coding
Duration                         : 23mn 29s
Bit rate mode                    : Variable
Bit rate                         : 900 Kbps
Maximum bit rate                 : 2 897 Kbps
Width                            : 1 024 pixels
Height                           : 576 pixels
Display aspect ratio             : 16:9
Frame rate mode                  : Constant
Frame rate                       : 23.976 fps
Color space                      : YUV
Chroma subsampling               : 4:2:0
Bit depth                        : 8 bits
Scan type                        : Progressive
Bits/(Pixel*Frame)               : 0.064
Stream size                      : 150 MiB (88%)
Writing library                  : x264 core 116 r2019 9cc407d
Encoding settings                : cabac=0 / ref=1 / deblock=1:0:0 / analyse=0x3:0x113 / me=hex / subme=7 / psy=1 / psy_rd=1.00:0.00 / mixed_ref=0 / me_range=16 / chroma_me=1 / trellis=1 / 8x8dct=1 / cqm=0 / deadzone=21,11 / fast_pskip=1 / chroma_qp_offset=-2 / threads=3 / sliced_threads=0 / nr=0 / decimate=1 / interlaced=0 / bluray_compat=0 / constrained_intra=0 / bframes=0 / weightp=2 / keyint=250 / keyint_min=23 / scenecut=40 / intra_refresh=0 / rc_lookahead=40 / rc=abr / mbtree=1 / bitrate=900 / ratetol=1.0 / qcomp=0.60 / qpmin=0 / qpmax=69 / qpstep=4 / ip_ratio=1.40 / aq=1:1.00
Encoded date                     : UTC 2014-09-07 00:30:08
Tagged date                      : UTC 2014-09-07 00:30:14

Audio
ID                               : 2
Format                           : AAC
Format/Info                      : Advanced Audio Codec
Format profile                   : LC
Codec ID                         : 40
Duration                         : 23mn 29s
Bit rate mode                    : Variable
Bit rate                         : 117 Kbps
Maximum bit rate                 : 142 Kbps
Channel(s)                       : 2 channels
Channel positions                : Front: L R
Sampling rate                    : 48.0 KHz
Compression mode                 : Lossy
Stream size                      : 19.7 MiB (12%)
Encoded date                     : UTC 2014-09-07 00:30:11
Tagged date                      : UTC 2014-09-07 00:30:14
Thumbnails:
Πατήστε την εικόνα για μεγέθυνση

Συντελεστές:
Ντρέικ Πάρκερ: Drake Bell
Τζος Νίκολς: Josh Peck
Μέγκαν Πάρκερ: Miranda Cosgrove
Γουόλτερ Νίκολς: Jonathan Goldstein
Όντρεϊ Πάρκερ: Nancy Sullivan

Δημιουργία: Dan Schneider
Υπότιτλοι: Ρένα Μαρκοπούλου (Lumiere) (Seasons 1-3, Season 4 Επεισόδια 1-10,13,19), Στεφανία Ρουμπή (AbFab Productions) (Season 4 επεισόδια 11,12,14-16-18,20)
Ripped & Uploaded by JasonC
Στατιστικά project:
Season 1: 6/6 uploaded
Season 2: 14/14 uploaded
Season 3: 17/17 uploaded
Season 4: 20/20 uploaded
Tαινίες: 02/02 uploaded
Συνολικά: 57/57 + 2 ταινίες uploaded, 100% ολοκληρωμένο

Season 1 - Ολοκληρωμένη


Season 2 - Ολοκληρωμένη


Season 3 - Ολοκληρωμένη


Season 4 - Ολοκληρωμένη


Η σειρά κυκλοφόρησε και 2 ταινίες:

Drake & Josh Go Hollywood


Ο Ντρέικ και ο Τζος βάζουν καταλάθος την μικρή τους αδερφή σε λάθος αεροπλάνο και μια ξέφρενη περιπέτεια στο Χόλλυγουντ ξεκινά!

Link


Merry Christmas Drake & Josh

Ο Ντρέικ και ο Τζος πρέπει να φτιάξουν τα Χριστούγεννα μιας οικογένειας για να μην καταλήξουν στην φυλακή!
Υποτιτλισμός εξ'ακοής: JasonC - Ακυκλοφόρητο στην Ελλάδα!


Το παρόν project είναι αποκλειστικά για το TeenSpirit. Nα μην προστεθεί αλλού.



Έχει επεξεργασθεί από τον/την Tsaklas στις Δευ Οκτ 26, 2015 12:20 pm, 16 φορές συνολικά

Μοιραστείτε αυτή τη δημοσίευση στο:Excite BookmarksDiggRedditDel.icio.usGoogleLiveSlashdotNetscapeTechnoratiStumbleUponNewsvineFurlYahooSmarking

avatar

Δημοσίευση Την / Το Πεμ Μαρ 31, 2016 1:54 pm από dinos182

Για να δούμε τι λέει η σειρά...

Ευχαριστούμε πολύ!!

avatar

Δημοσίευση Την / Το Παρ Μαϊος 06, 2016 4:11 pm από sinsinsonson

Ευχαριστώ πολύ.

avatar

Δημοσίευση Την / Το Σαβ Ιουν 11, 2016 5:17 pm από Rudolf29

h kaluteerh

avatar

Δημοσίευση Την / Το Κυρ Ιουν 12, 2016 9:13 am από Tsaklas

Απαγορεύονται τα greeklish

avatar

Δημοσίευση Την / Το Παρ Ιουν 17, 2016 12:07 am από Rudolf29

οκ, που μπορουσα να το δω?

avatar

Δημοσίευση Την / Το Παρ Ιουν 17, 2016 1:30 am από Tsaklas

Στους κανονισμούς της σελίδας.

avatar

Δημοσίευση Την / Το Πεμ Ιουλ 07, 2016 10:08 pm από ioannis95

απο τις καλυτερες σειρες ευχαριστω

avatar

Δημοσίευση Την / Το Σαβ Αυγ 06, 2016 10:52 am από Usagi

Είσαι καταπληκτικός! Τη λατρεύω αυτή τη σειρά! Γελάω πάρα πολύ και με χαλαρώνει να την βλέπω! I love you

avatar

Δημοσίευση Την / Το Δευ Οκτ 31, 2016 8:08 pm από Jimis10

Thnkd

avatar

Δημοσίευση Την / Το Τετ Νοε 02, 2016 4:45 pm από i.tzer

[Πρέπει να είστε εγγεγραμμένοι και συνδεδεμένοι για να δείτε αυτόν το σύνδεσμο.] έγραψε:Ευχαριστω
thanks!

avatar

Δημοσίευση Την / Το Τετ Νοε 02, 2016 4:46 pm από i.tzer

[Πρέπει να είστε εγγεγραμμένοι και συνδεδεμένοι για να δείτε αυτόν το σύνδεσμο.] έγραψε:Ευχαριστω
thanks!

avatar

Δημοσίευση Την / Το Παρ Νοε 11, 2016 4:20 pm από apollonara

Ευχαριστώ!

avatar

Δημοσίευση Την / Το Πεμ Δεκ 29, 2016 5:59 pm από teliosmetonma

ty

avatar

Δημοσίευση Την / Το Κυρ Ιαν 08, 2017 3:03 pm από jeezus

Very Happy Very Happy Very Happy

avatar

Δημοσίευση Την / Το Πεμ Απρ 06, 2017 3:49 am από Nikos Vlas

Ευχαριστώ πολύ Very Happy Very Happy

avatar

Δημοσίευση Την / Το Πεμ Απρ 06, 2017 6:09 pm από teliosmetonma

τα επεισόδια δεν μου παίζουν Sad Sad

avatar

Δημοσίευση Την / Το Δευ Ιουλ 10, 2017 2:28 pm από TakashiKumuro

thnx

avatar

Δημοσίευση Την / Το Τρι Ιουλ 11, 2017 12:43 pm από Vaggelic

thanks

avatar

Δημοσίευση Την / Το Πεμ Ιουλ 20, 2017 3:38 am από mikey900

ευχαριστω πολυ!

avatar

Δημοσίευση Την / Το Παρ Ιουλ 28, 2017 1:13 pm από george100

Χίλια ευχαριστώ!

avatar

Δημοσίευση Την / Το Κυρ Ιουλ 30, 2017 4:28 pm από AUSTIN B.

THX

Επισκόπηση προηγούμενης Θ.Ενότητας Επισκόπηση επόμενης Θ.Ενότητας Επιστροφή στην κορυφή Μήνυμα [Σελίδα 2 από 2]

Μετάβαση στη σελίδα : Επιστροφή  1, 2

Δικαιώματα σας στην κατηγορία αυτή
Δεν μπορείτε να απαντήσετε στα Θέματα αυτής της Δ.Συζήτησης