Teen Spirit

Ένα φόρουμ αποκλειστικά για νεανικές σειρές στα ελληνικά!


Μη Συνδεδεμενος Παρακαλώ συνδεθείτε ή εγγραφείτε

[MEGA] Sam & Cat DTVRip (2013)

Μετάβαση στη σελίδα : 1, 2  Επόμενο

Επισκόπηση προηγούμενης Θ.Ενότητας Επισκόπηση επόμενης Θ.Ενότητας Πήγαινε κάτω Μήνυμα [Σελίδα 1 από 2]

avatar

Tsaklas


Admin
Admin
http://teenspirit.forumgreek.com

Προστέθηκε το επεισόδιο 30 που δεν προβάλλει με δικούς μου υπότιτλους! Ολοκληρώθηκε η σειρά!

Στην νέα κωμική σειρά του Nickelodeon, η νευρική Sam Puckett (Jennette McCurdy) και η επιπόλαια Cat Valentine (Ariana Grande), γίνονται οι καλύτερες φίλες και απίθανοι συγκάτοικοι. Λατρεύουν την ελευθερία τους και την ανεξαρτησία, αλλά γρήγορα συνειδητοποιούν ότι η διασκέδαση και η περιπέτεια δεν έρχονται εύκολα.

Αντί να αναλάβουν “παραδοσιακές” δουλείες μετά στο σχολείο ώστε να έχουν χαρτζιλίκι, η Sam και η Cat γίνονται επιχειρηματίες, ξεκινώντας τη δική τους εταιρία babysitting - μια επιχείρηση που τους οδηγεί σε μία σειρά από ξεκαρδιστικές καταστάσεις!

Η σειρά προβάλλεται καθημερινά μέσω του Nickelodeon από την Δευτέρα 24 Φεβρουαρίου 2014, ενώ νέα επεισόδια (από το 14 έως το 25) ξεκίνησαν την Δευτέρα 8 Σεπτεμβρίου 2014.

Tα επεισόδια 1-24 έγραψε, επεξεργάστηκε και ανέβασε ο JasonC, τον οποίο ευχαριστούμε θερμά. Τα υπόλοιπα είναι δικά μου DTVRips.

[Πρέπει να είστε εγγεγραμμένοι και συνδεδεμένοι για να δείτε αυτόν το σύνδεσμο.]

Χαρακτηριστικά:
General
Complete name                    : G:\1 EPISODES\Sam & Cat\S1E23-24 #TheKillerTunaJump #Freddie#Jade#Robbie\S&C.S01E23HD.mp4
Format                           : MPEG-4
Format profile                   : Base Media
Codec ID                         : isom
File size                        : 154 MiB
Duration                         : 21mn 19s
Overall bit rate                 : 1 010 Kbps
Encoded date                     : UTC 2014-10-05 09:31:04
Tagged date                      : UTC 2014-10-05 09:31:04
Writing application              : FormatFactory : [Πρέπει να είστε εγγεγραμμένοι και συνδεδεμένοι για να δείτε αυτόν το σύνδεσμο.]

Video
ID                               : 1
Format                           : AVC
Format/Info                      : Advanced Video Codec
Format profile                   : High@L2.1
Format settings, CABAC           : No
Format settings, ReFrames        : 1 frame
Codec ID                         : avc1
Codec ID/Info                    : Advanced Video Coding
Duration                         : 21mn 19s
Bit rate mode                    : Variable
Bit rate                         : 900 Kbps
Maximum bit rate                 : 3 603 Kbps
Width                            : 1 024 pixels
Height                           : 576 pixels
Display aspect ratio             : 16:9
Frame rate mode                  : Constant
Frame rate                       : 23.976 fps
Color space                      : YUV
Chroma subsampling               : 4:2:0
Bit depth                        : 8 bits
Scan type                        : Progressive
Bits/(Pixel*Frame)               : 0.064
Stream size                      : 136 MiB (88%)
Writing library                  : x264 core 116 r2019 9cc407d
Encoding settings                : cabac=0 / ref=1 / deblock=1:0:0 / analyse=0x3:0x113 / me=hex / subme=7 / psy=1 / psy_rd=1.00:0.00 / mixed_ref=0 / me_range=16 / chroma_me=1 / trellis=1 / 8x8dct=1 / cqm=0 / deadzone=21,11 / fast_pskip=1 / chroma_qp_offset=-2 / threads=3 / sliced_threads=0 / nr=0 / decimate=1 / interlaced=0 / bluray_compat=0 / constrained_intra=0 / bframes=0 / weightp=2 / keyint=250 / keyint_min=23 / scenecut=40 / intra_refresh=0 / rc_lookahead=40 / rc=abr / mbtree=1 / bitrate=900 / ratetol=1.0 / qcomp=0.60 / qpmin=0 / qpmax=69 / qpstep=4 / ip_ratio=1.40 / aq=1:1.00
Encoded date                     : UTC 2014-10-05 09:31:04
Tagged date                      : UTC 2014-10-05 09:31:11

Audio
ID                               : 2
Format                           : AAC
Format/Info                      : Advanced Audio Codec
Format profile                   : LC
Codec ID                         : 40
Duration                         : 21mn 19s
Bit rate mode                    : Variable
Bit rate                         : 114 Kbps
Maximum bit rate                 : 141 Kbps
Channel(s)                       : 2 channels
Channel positions                : Front: L R
Sampling rate                    : 48.0 KHz
Compression mode                 : Lossy
Stream size                      : 17.3 MiB (11%)
Encoded date                     : UTC 2014-10-05 09:31:10
Tagged date                      : UTC 2014-10-05 09:31:11
Thumbnails:
[Πρέπει να είστε εγγεγραμμένοι και συνδεδεμένοι για να δείτε αυτόν το σύνδεσμο.]
Συντελεστές:
Σαμ Πάκετ: Jennette McCurdy
Κατ Βαλεντάιν: Ariana Grande
Ντάις Κορλιόν: Cameron Ocasio
Νόνα: Maree Cheatam
Γκούμερ: Zoran Korach

Δημιουργία: Dan Schneider
Υποτιτλισμός: AbFab Productions

Links


Να μην προστεθεί αλλού. Αποκλειστικά για το TeenSpirit!



Έχει επεξεργασθεί από τον/την Tsaklas στις Σαβ Ιαν 09, 2016 12:37 pm, 7 φορές συνολικά

Μοιραστείτε αυτή τη δημοσίευση στο:Excite BookmarksDiggRedditDel.icio.usGoogleLiveSlashdotNetscapeTechnoratiStumbleUponNewsvineFurlYahooSmarking

avatar

Δημοσίευση Την / Το Παρ Νοε 21, 2014 5:38 pm από Alex

Ευχαριστώ!

avatar

Δημοσίευση Την / Το Παρ Νοε 21, 2014 5:39 pm από redlegend

Ευχαριστώ

avatar

Δημοσίευση Την / Το Σαβ Νοε 22, 2014 5:09 pm από lef0

Ευχαριστώ!

avatar

Δημοσίευση Την / Το Σαβ Νοε 29, 2014 6:15 pm από Tsaklas

Προστέθηκε το επεισόδιο 19!

avatar

Δημοσίευση Την / Το Σαβ Νοε 29, 2014 9:13 pm από Kim Possible

Μπλα Μπλα Μπλα Μπλα Ευχαριστώ πολύ Laughing

Δημοσίευση Την / Το Κυρ Νοε 30, 2014 5:12 pm από AlexakosMpil

ευχαριστω

Δημοσίευση Την / Το Κυρ Δεκ 14, 2014 11:48 pm από ihaveyouall

Ευχαριστώ!!!

Δημοσίευση Την / Το Τετ Ιαν 07, 2015 9:51 pm από eliza123

που παταω για να δω τα επεισοδια;

avatar

Δημοσίευση Την / Το Τετ Ιαν 07, 2015 10:18 pm από Alex

Τώρα που έκανες post μπορείς να δεις τα links.

avatar

Δημοσίευση Την / Το Σαβ Ιαν 17, 2015 9:30 am από Tsaklas

Έχω επίσης όλα τα υπόλοιπα επεισόδια με δικούς μου υπότιτλους. Μόλις μπορέσω θα ανέβουν.

Δημοσίευση Την / Το Παρ Ιαν 30, 2015 11:11 pm από panagiotis94

avatar

Δημοσίευση Την / Το Τρι Φεβ 10, 2015 8:06 pm από evstav

thx

Δημοσίευση Την / Το Πεμ Απρ 02, 2015 6:23 am από ZaneX

Ευχαριστώ!

Δημοσίευση Την / Το Τρι Απρ 14, 2015 5:22 am από Fism

ευχαριστω Smile

Δημοσίευση Την / Το Τετ Μαϊος 06, 2015 4:45 pm από aggelosst9

Ευχαριστώ! Very Happy

Δημοσίευση Την / Το Σαβ Μαϊος 23, 2015 11:05 am από TB87

ευχαριστω

Δημοσίευση Την / Το Τετ Ιουν 10, 2015 7:53 pm από ap-99

thanks

avatar

Δημοσίευση Την / Το Παρ Ιουλ 03, 2015 12:43 am από Squidvard

Σε ευχαριστώ πολύ!

avatar

Δημοσίευση Την / Το Τετ Αυγ 05, 2015 1:50 am από Tsaklas

Προστέθηκαν τα 26-32, μπήκαν όλα όσα έχει δείξει!

Δημοσίευση Την / Το Παρ Αυγ 07, 2015 12:35 am από DRAKE AND JOSH FAN!

Thanks!

Δημοσίευση Την / Το Τετ Σεπ 16, 2015 1:08 am από kwstas

thanks

avatar

Δημοσίευση Την / Το Τρι Σεπ 22, 2015 7:45 pm από Nikos7Gauros

Ευχαριστούμε πάρα πολύ!! Very Happy

avatar

Δημοσίευση Την / Το Δευ Οκτ 26, 2015 4:34 pm από Tsaklas

Προστέθηκαν τα επεισόδια 33,34,35!

avatar

Δημοσίευση Την / Το Τρι Νοε 03, 2015 1:55 am από giwrgos00

ty

Επισκόπηση προηγούμενης Θ.Ενότητας Επισκόπηση επόμενης Θ.Ενότητας Επιστροφή στην κορυφή Μήνυμα [Σελίδα 1 από 2]

Μετάβαση στη σελίδα : 1, 2  Επόμενο

Δικαιώματα σας στην κατηγορία αυτή
Δεν μπορείτε να απαντήσετε στα Θέματα αυτής της Δ.Συζήτησης