Teen Spirit

Ένα φόρουμ αποκλειστικά για νεανικές σειρές στα ελληνικά!


Μη Συνδεδεμενος Παρακαλώ συνδεθείτε ή εγγραφείτε

[MEGA] Wendy Wu Homecoming Warrior (2006) 720p (Micro HD)

Επισκόπηση προηγούμενης Θ.Ενότητας Επισκόπηση επόμενης Θ.Ενότητας Πήγαινε κάτω Μήνυμα [Σελίδα 1 από 1]

avatar

tironsi74


Mega Member
Mega Member

Wendy Wu Homecoming Warrior (2006) 720p (Micro HD)




Η Γουέντι Γου είναι μια τυπική Αμερικανίδα έφηβη που ζει μια φυσιολογική ζωή μέχρι τη στιγμή που θα την επισκεφθεί ο Σιν, ένας νεαρός Βουδιστής μοναχός. Ο Σιν ισχυρίζεται ότι η Γουέντι είναι η μετενσάρκωση μιας πανίσχυρης πολεμίστριας και το μόνο άτομο στη γη που μπορεί να αποτρέψει ένα αρχαίο σατανικό πνεύμα από το να κυριεύσει τον κόσμο! Ο νεαρός μοναχός θα παρακαλέσει το κορίτσι να φορέσει ένα πανίσχυρο φυλαχτό που θα της παρέχει προστασία από το κακό, ενώ ο ίδιος θα την εκπαιδεύει στις πολεμικές τέχνες ώστε να είναι έτοιμη τη στιγμή της μεγάλης σύγκρουσης.

Περιπέτεια: 2006
Διάρκεια: 89'
Παραγωγή: ΗΠΑ
Ηθοποιοί: Μπρέντα Σονγκ, Σιν Κογιαμάντα, Σούζαν Τσουάνγκ, Τζάστιν Τσον
Σκηνοθέτης: Τζον Λέινγκ

IMDB: [Πρέπει να είστε εγγεγραμμένοι και συνδεδεμένοι για να δείτε αυτόν το σύνδεσμο.]
Trailer: [Πρέπει να είστε εγγεγραμμένοι και συνδεδεμένοι για να δείτε αυτόν το σύνδεσμο.]

Στην Ελληνική μεταγλώττιση ακούγονται οι:
Αφροδίτη Αντωνάκη,Δημήτρης Δημόπουλος, Ανδρέας Ευαγγελάτος,
Στέλιος Ψαρουδάκης, Ζωή Κατσάτου, Μαριάννα Παπασάββα


Screenshots:





Χαρακτηριστικά:
Complete name           Wendy Wu Homecoming Warrior (2006).mkv
Format                      : Matroska
Format version              : Version 4 / Version 2
File size                   : 1.09 GiB
Duration                    : 1h 29mn
Overall bit rate mode       : Variable
Overall bit rate            : 1 741 Kbps
Movie name                  : Wendy Wu Homecoming Warrior (2006) Web-DL (Tironsi 74 Encode)
Encoded date                : UTC 2016-05-30 18:35:27
Writing application         : mkvmerge v8.6.1 ('Flying') 64bit
Writing library             : libebml v1.3.3 + libmatroska v1.4.4
Attachements                : cover.png
DURATION                    : 01:29:39.904000000
NUMBER_OF_FRAMES            : 168122
NUMBER_OF_BYTES             : 150637312
_STATISTICS_WRITING_APP     : mkvmerge v8.6.1 ('Flying') 64bit
_STATISTICS_WRITING_DATE_UT : 2016-05-30 18:35:27
_STATISTICS_TAGS            : BPS DURATION NUMBER_OF_FRAMES NUMBER_OF_BYTES

Video
ID                          : 1
Format                      : AVC
Format/Info                 : Advanced Video Codec
Format profile              : High@L4
Format settings, CABAC      : Yes
Format settings, ReFrames   : 3 frames
Codec ID                    : V_MPEG4/ISO/AVC
Duration                    : 1h 29mn
Bit rate mode               : Variable
Bit rate                    : 1 500 Kbps
Maximum bit rate            : 25.0 Mbps
Width                       : 1 280 pixels
Height                      : 720 pixels
Display aspect ratio        : 16:9
Frame rate mode             : Constant
Frame rate                  : 23.976 fps
Color space                 : YUV
Chroma subsampling          : 4:2:0
Bit depth                   : 8 bits
Scan type                   : Progressive
Bits/(Pixel*Frame)          : 0.068
Stream size                 : 951 MiB (85%)
Writing library             : x264 core 135 r2345 f0c1c53
Encoding settings           : cabac=1 / ref=3 / deblock=1:0:0 / analyse=0x3:0x113 / me=hex / subme=7 / psy=1 / psy_rd=1.00:0.00 / mixed_ref=1 / me_range=16 / chroma_me=1 / trellis=1 / 8x8dct=1 / cqm=0 / deadzone=21,11 / fast_pskip=1 / chroma_qp_offset=-2 / threads=12 / lookahead_threads=2 / sliced_threads=0 / nr=0 / decimate=1 / interlaced=0 / bluray_compat=0 / constrained_intra=0 / bframes=3 / b_pyramid=0 / b_adapt=1 / b_bias=0 / direct=1 / weightb=1 / open_gop=0 / weightp=2 / keyint=240 / keyint_min=24 / scenecut=40 / intra_refresh=0 / rc_lookahead=40 / rc=2pass / mbtree=1 / bitrate=1500 / ratetol=1.0 / qcomp=0.60 / qpmin=0 / qpmax=69 / qpstep=4 / cplxblur=20.0 / qblur=0.5 / vbv_maxrate=25000 / vbv_bufsize=25000 / nal_hrd=vbr / ip_ratio=1.40 / aq=1:1.00
Default                     : Yes
Forced                      : No

Audio
ID                          : 2
Format                      : AC-3
Format/Info                 : Audio Coding 3
Mode extension              : CM (complete main)
Format settings, Endianness : Big
Codec ID                    : A_AC3
Duration                    : 1h 29mn
Bit rate mode               : Constant
Bit rate                    : 224 Kbps
Channel(s)                  : 2 channels
Channel positions           : Front: L R
Sampling rate               : 48.0 KHz
Compression mode            : Lossy
Stream size                 : 144 MiB (13%)
Title                       : (Tironsi 74 Encode)
Language                    : Greek
Default                     : Yes
Forced                      : No

Password:
teenspirit.forumgreek.com

Link:
[Πρέπει να είστε εγγεγραμμένοι και συνδεδεμένοι για να δείτε αυτόν το σύνδεσμο.]

Αποκλειστικά για το: teenspirit.forumgreek.com

Μοιραστείτε αυτή τη δημοσίευση στο:Excite BookmarksDiggRedditDel.icio.usGoogleLiveSlashdotNetscapeTechnoratiStumbleUponNewsvineFurlYahooSmarking

avatar

Δημοσίευση Την / Το Τρι Μαϊος 31, 2016 9:13 pm από Alex

Ευχαριστώ!

avatar

Δημοσίευση Την / Το Τετ Ιουν 01, 2016 1:48 am από lef0

ευχαριστω

Δημοσίευση Την / Το Τετ Ιουν 01, 2016 5:17 pm από disney12

ευχαριστώ

avatar

Δημοσίευση Την / Το Σαβ Ιουν 04, 2016 11:40 pm από marakilovaki

Ευχαριστώ!

avatar

Δημοσίευση Την / Το Κυρ Ιουν 19, 2016 10:12 am από cronaldo77

θνξξ

avatar

Δημοσίευση Την / Το Σαβ Ιουν 25, 2016 10:26 pm από stefania12

ορεα τενια

avatar

Δημοσίευση Την / Το Σαβ Αυγ 13, 2016 6:44 pm από Andria<3

thanks...

avatar

Δημοσίευση Την / Το Δευ Σεπ 05, 2016 11:51 am από Θανάσης

Ευχαριστώ

avatar

Δημοσίευση Την / Το Παρ Νοε 18, 2016 7:06 pm από joker

thanks a lot guysss

avatar

Δημοσίευση Την / Το Τετ Δεκ 07, 2016 12:13 am από xarhs

thanks

avatar

Δημοσίευση Την / Το Τρι Μαρ 21, 2017 1:15 am από kitty

avatar

Δημοσίευση Την / Το Τετ Μαρ 22, 2017 6:29 pm από kitty

avatar

Δημοσίευση Την / Το Σαβ Απρ 08, 2017 11:31 pm από vasoula_xt

Δεν λειτουργεί. Τζάμπα έκανα την εγγραφή. ΤΙ να πω τουλάχιστον απαραδεκτόι

avatar

Δημοσίευση Την / Το Τρι Ιουν 13, 2017 4:33 pm από xampos101

thanks

avatar

Δημοσίευση Την / Το Πεμ Ιουλ 06, 2017 7:50 am από cat2

Επισκόπηση προηγούμενης Θ.Ενότητας Επισκόπηση επόμενης Θ.Ενότητας Επιστροφή στην κορυφή Μήνυμα [Σελίδα 1 από 1]

Δικαιώματα σας στην κατηγορία αυτή
Δεν μπορείτε να απαντήσετε στα Θέματα αυτής της Δ.Συζήτησης