Teen Spirit

Ένα φόρουμ αποκλειστικά για νεανικές σειρές στα ελληνικά!


Μη Συνδεδεμενος Παρακαλώ συνδεθείτε ή εγγραφείτε

[MEGA] Harry Potter (1) And the Sorcerors Stone (2001) 720p (Micro HD) Greek Audio AC3 5.1

Επισκόπηση προηγούμενης Θ.Ενότητας Επισκόπηση επόμενης Θ.Ενότητας Πήγαινε κάτω Μήνυμα [Σελίδα 1 από 1]

avatar

tironsi74


Mega Member
Mega Member

Harry Potter (1) And the Sorcerors Stone (2001) 720p (Micro HD) Greek Audio AC3 5.1




Ο Χάρι Πότερ φαίνεται σαν ένα συνηθισμένο 11χρονο αγόρι, που ζει με τους θείους του, τους Ντάρσλεϊς.
Στα γενέθλιά του, ο Χάρι μαθαίνει από ένα μυστήριο άγνωσο άντρα, τον Ρούμπεους Χάγκριντ, ότι είναι
μάγος, διάσημος στον κόσμο της μαγείας επειδή επέζησε της επίθεσης από το σατανικό Λόρδο Βόλντεμορτ,
όταν ο Χάρι ήταν ακόμα μωρό. Ο Βόλντεμορτ σκότωσε τους γονείς του Χάρι, ενώ όταν του επιτέθηκε,
το ξόρκι του άφησε μόνο ένα σημάδι με σχήμα κεραυνό στο μέτωπό του και αποδυνάμωσε το Βόλντεμορτ.
Ο Χάγκριντ τον ενημερώνει ότι έχει προσκληθεί να φοιτήσει στο Χόγκουαρτς. Αφού αγοράσουν τις προμήθειες,
ο Χάρι επιβιβάζεται στο τραίνο του Χόγκουαρτς.

Περιπέτεια: 2001
Διάρκεια: 151'
Παραγωγή: UK | USA
Ηθοποιοί: Daniel Radcliffe, Rupert Grint, Richard Harris
Σκηνοθέτης: Chris Columbus

IMDB: [Πρέπει να είστε εγγεγραμμένοι και συνδεδεμένοι για να δείτε αυτόν το σύνδεσμο.]
Trailer: [Πρέπει να είστε εγγεγραμμένοι και συνδεδεμένοι για να δείτε αυτόν το σύνδεσμο.]

Στην Ελληνική μεταγλώττιση ακούγονται οι: Δυστυχώς είναι άγνωστα τα ονοματά τους.



Screenshots:






Χαρακτηριστικά:
Complete name               : Harry Potter (1) And the Sorcerors Stone (2001) Gr.mkv
Format                      : Matroska
Format version              : Version 4 / Version 2
File size                   : 2.00 GiB
Duration                    : 2h 30mn
Overall bit rate mode       : Variable
Overall bit rate            : 1 902 Kbps
Movie name                  : Harry Potter 1 And the Sorcerors Stone (2001) Full Bluray rip by Tironsi 74 (TeenSpirit.com)
Encoded date                : UTC 2016-06-02 18:34:06
Writing application         : mkvmerge v8.6.1 ('Flying') 64bit
Writing library             : libebml v1.3.3 + libmatroska v1.4.4
Attachements                : cover.png
DURATION                    : 02:30:43.424000000
NUMBER_OF_FRAMES            : 282607
NUMBER_OF_BYTES             : 434084352
_STATISTICS_WRITING_APP     : mkvmerge v8.6.1 ('Flying') 64bit
_STATISTICS_WRITING_DATE_UT : 2016-06-02 18:34:06
_STATISTICS_TAGS            : BPS DURATION NUMBER_OF_FRAMES NUMBER_OF_BYTES

Video
ID                          : 1
Format                      : AVC
Format/Info                 : Advanced Video Codec
Format profile              : High@L4
Format settings, CABAC      : Yes
Format settings, ReFrames   : 3 frames
Codec ID                    : V_MPEG4/ISO/AVC
Duration                    : 2h 30mn
Bit rate mode               : Variable
Bit rate                    : 1 500 Kbps
Maximum bit rate            : 25.0 Mbps
Width                       : 1 280 pixels
Height                      : 544 pixels
Display aspect ratio        : 2.35:1
Frame rate mode             : Constant
Frame rate                  : 23.976 fps
Color space                 : YUV
Chroma subsampling          : 4:2:0
Bit depth                   : 8 bits
Scan type                   : Progressive
Bits/(Pixel*Frame)          : 0.090
Stream size                 : 1.56 GiB (78%)
Writing library             : x264 core 135 r2345 f0c1c53
Encoding settings           : cabac=1 / ref=3 / deblock=1:0:0 / analyse=0x3:0x113 / me=hex / subme=7 / psy=1 / psy_rd=1.00:0.00 / mixed_ref=1 / me_range=16 / chroma_me=1 / trellis=1 / 8x8dct=1 / cqm=0 / deadzone=21,11 / fast_pskip=1 / chroma_qp_offset=-2 / threads=12 / lookahead_threads=2 / sliced_threads=0 / nr=0 / decimate=1 / interlaced=0 / bluray_compat=0 / constrained_intra=0 / bframes=3 / b_pyramid=0 / b_adapt=1 / b_bias=0 / direct=1 / weightb=1 / open_gop=0 / weightp=2 / keyint=240 / keyint_min=24 / scenecut=40 / intra_refresh=0 / rc_lookahead=40 / rc=2pass / mbtree=1 / bitrate=1500 / ratetol=1.0 / qcomp=0.60 / qpmin=0 / qpmax=69 / qpstep=4 / cplxblur=20.0 / qblur=0.5 / vbv_maxrate=25000 / vbv_bufsize=25000 / nal_hrd=vbr / ip_ratio=1.40 / aq=1:1.00
Default                     : Yes
Forced                      : No

Audio
ID                          : 2
Format                      : AC-3
Format/Info                 : Audio Coding 3
Mode extension              : CM (complete main)
Format settings, Endianness : Big
Codec ID                    : A_AC3
Duration                    : 2h 30mn
Bit rate mode               : Constant
Bit rate                    : 384 Kbps
Channel(s)                  : 6 channels
Channel positions           : Front: L C R, Side: L R, LFE
Sampling rate               : 48.0 KHz
Compression mode            : Lossy
Stream size                 : 414 MiB (20%)
Title                       : Encoded by Tironsi 74
Language                    : Greek
Default                     : Yes
Forced                      : No

Password:
teenspirit.forumgreek.com


Links:
[Πρέπει να είστε εγγεγραμμένοι και συνδεδεμένοι για να δείτε αυτόν το σύνδεσμο.]
[Πρέπει να είστε εγγεγραμμένοι και συνδεδεμένοι για να δείτε αυτόν το σύνδεσμο.]
[Πρέπει να είστε εγγεγραμμένοι και συνδεδεμένοι για να δείτε αυτόν το σύνδεσμο.]
[Πρέπει να είστε εγγεγραμμένοι και συνδεδεμένοι για να δείτε αυτόν το σύνδεσμο.]

Αποκλειστικά για το: teenspirit.forumgreek.com



Έχει επεξεργασθεί από τον/την tironsi74 στις Παρ Ιουν 03, 2016 8:12 pm, 1 φορά

Μοιραστείτε αυτή τη δημοσίευση στο:Excite BookmarksDiggRedditDel.icio.usGoogleLiveSlashdotNetscapeTechnoratiStumbleUponNewsvineFurlYahooSmarking

avatar

Δημοσίευση Την / Το Παρ Ιουν 03, 2016 7:35 pm από AUSTIN B.

τηχ

Ευχαριστώ!

avatar

Δημοσίευση Την / Το Κυρ Ιουλ 10, 2016 9:19 pm από magicpanos

EYXAISTO

ΕΥΧΑΡΙΣΤΩ ΠΟΛΥ

AUSTIN B. έγραψε:τηχ
thanks

Πολλά ευχαριστώ!

thanks

Γιατί να το κάνουν μεταγλώττιση ; Shocked

τέλεια

avatar

Δημοσίευση Την / Το Πεμ Μαρ 09, 2017 10:35 pm από michel2009

avatar

Δημοσίευση Την / Το Πεμ Μαρ 09, 2017 10:37 pm από michel2009

lol!

Τhx! θα βάλεις και τις άλλες ταινίες?
"που υπάρχουν μεταγλωτισμένες "

avatar

Δημοσίευση Την / Το Σαβ Απρ 29, 2017 12:29 pm από teliosmetonma

ty

avatar

Δημοσίευση Την / Το Παρ Μαϊος 12, 2017 12:52 pm από michel2009

avatar

Δημοσίευση Την / Το Παρ Ιουν 09, 2017 6:09 pm από Cartoon Channel

τελειο!

teleioo

avatar

Δημοσίευση Την / Το Δευ Ιουλ 03, 2017 12:37 pm από Vaggelic

thanks

thanks

ευχαριστω πολυ

Επισκόπηση προηγούμενης Θ.Ενότητας Επισκόπηση επόμενης Θ.Ενότητας Επιστροφή στην κορυφή Μήνυμα [Σελίδα 1 από 1]

Δικαιώματα σας στην κατηγορία αυτή
Δεν μπορείτε να απαντήσετε στα Θέματα αυτής της Δ.Συζήτησης