Teen Spirit

Ένα φόρουμ αποκλειστικά για νεανικές σειρές στα ελληνικά!


Μη Συνδεδεμενος Παρακαλώ συνδεθείτε ή εγγραφείτε

[MEGA] Big Time Rush DTVRip (2009) [COMPLETE SERIES]

Μετάβαση στη σελίδα : Επιστροφή  1, 2

Επισκόπηση προηγούμενης Θ.Ενότητας Επισκόπηση επόμενης Θ.Ενότητας Πήγαινε κάτω Μήνυμα [Σελίδα 2 από 2]


Tsaklas


Admin
Admin
http://teenspirit.forumgreek.com

Oλοκληρώθηκε και η 4η σαιζόν!

Το Big Time Rush είναι μία σειρά για τη φιλία, που εξιστορεί την εύρεση, τη δημιουργία και την άνοδο ενός μουσικού group, που έχει προοπτικές να σκαρφαλώσει πολύ ψηλά στα charts. Κάθε μέλος του group φέρνει το κάτι διαφορετικό στην ομάδα, καθώς προσπαθούν να ανακαλύψουν τη θέση τους στη βιομηχανία της μουσικής και του θεάματος. Η ζωή όμως στο χώρο της μουσικής δεν είναι εύκολη και οι ανοησίες τους, τους οδηγούν πολλές φορές σε προβλήματα με τη δισκογραφική τους εταιρία. Τα παραδείγματα πολλά: Ερωτεύονται την ίδια κοπέλα, η επισκευή του διαμερίσματός τους στο Palm Woods, η απρεπή συμπεριφορά προς τον καινούργιο δάσκαλο στο στούντιο ηχογράφησης. Μέσα όμως από αυτές και πολλές άλλες ανοησίες, το group θα καταλάβει ότι η επιτυχία έρχεται μόνο με σκληρή δουλειά, αφοσίωση και την υποστήριξη του ενός προς τα υπόλοιπα μέλη της ομάδας.

Στην Ελλάδα ξεκίνησε να προβάλλεται από 16/02/2011 και έχουν ολοκληρωθεί και οι 4 Κύκλοι.

Τα επεισόδια των 3 πρώτων σαιζόν έγραψε, ανέβασε και επεξεργάστηκε ο JasonC. Η 4η σαιζόν αποτελείται από δικά μου rips.



Χαρακτηριστικά:
General
Complete name                    : G:\1 EPISODES\Big Time Rush\Season 2\S2E19 Big Time Prom Kings\BTR.S02E19HD.mp4
Format                           : MPEG-4
Format profile                   : Base Media
Codec ID                         : isom
File size                        : 196 MiB
Duration                         : 27mn 1s
Overall bit rate                 : 1 013 Kbps
Encoded date                     : UTC 2014-08-31 02:14:11
Tagged date                      : UTC 2014-08-31 02:14:11
Writing application              : FormatFactory : [Πρέπει να είστε εγγεγραμμένοι και συνδεδεμένοι για να δείτε αυτόν το σύνδεσμο.]

Video
ID                               : 1
Format                           : AVC
Format/Info                      : Advanced Video Codec
Format profile                   : High@L2.1
Format settings, CABAC           : No
Format settings, ReFrames        : 1 frame
Codec ID                         : avc1
Codec ID/Info                    : Advanced Video Coding
Duration                         : 27mn 1s
Bit rate mode                    : Variable
Bit rate                         : 900 Kbps
Maximum bit rate                 : 2 207 Kbps
Width                            : 1 024 pixels
Height                           : 576 pixels
Display aspect ratio             : 16:9
Frame rate mode                  : Constant
Frame rate                       : 23.976 fps
Color space                      : YUV
Chroma subsampling               : 4:2:0
Bit depth                        : 8 bits
Scan type                        : Progressive
Bits/(Pixel*Frame)               : 0.064
Stream size                      : 170 MiB (87%)
Writing library                  : x264 core 116 r2019 9cc407d
Encoding settings                : cabac=0 / ref=1 / deblock=1:0:0 / analyse=0x3:0x113 / me=hex / subme=7 / psy=1 / psy_rd=1.00:0.00 / mixed_ref=0 / me_range=16 / chroma_me=1 / trellis=1 / 8x8dct=1 / cqm=0 / deadzone=21,11 / fast_pskip=1 / chroma_qp_offset=-2 / threads=3 / sliced_threads=0 / nr=0 / decimate=1 / interlaced=0 / bluray_compat=0 / constrained_intra=0 / bframes=0 / weightp=2 / keyint=250 / keyint_min=23 / scenecut=40 / intra_refresh=0 / rc_lookahead=40 / rc=abr / mbtree=1 / bitrate=900 / ratetol=1.0 / qcomp=0.60 / qpmin=0 / qpmax=69 / qpstep=4 / ip_ratio=1.40 / aq=1:1.00
Encoded date                     : UTC 2014-08-31 02:14:11
Tagged date                      : UTC 2014-08-31 02:14:23

Audio
ID                               : 2
Format                           : AAC
Format/Info                      : Advanced Audio Codec
Format profile                   : LC
Codec ID                         : 40
Duration                         : 27mn 1s
Bit rate mode                    : Variable
Bit rate                         : 132.3 Kbps
Maximum bit rate                 : 175 Kbps
Channel(s)                       : 2 channels
Channel positions                : Front: L R
Sampling rate                    : 48.0 KHz
Compression mode                 : Lossy
Stream size                      : 25.7 MiB (13%)
Encoded date                     : UTC 2014-08-31 02:14:19
Tagged date                      : UTC 2014-08-31 02:14:23
Thumbnails:
Συντελεστές:
Κένταλ Νάιτ: Kendall Schmidt
Τζέιμς Ντάιαμοντ: James Maslow
Κάρλος Γκαρσία: Carlos Pena, Jr.
Λόγκαν Μίτσελ: Logan Henderson
Κέιτι Νάιτ: Ciara Bravo
Γκουστάβο Ροκ: Stephen Kramer Glickman
Κέλλυ Γουέινραϊτ: Tanya Chisholm
Μαμά Νάιτ: Challen Chates
Γκρίφιν: Matt Riedy
Κος Μπίττερς: David Anthony Higgins
Βούδας Μπομπ: Darran Norris

Δημιουργία: Scott Fellows
Υποτιτλισμός: AbFab Productions

Links










Η τέταρτη σαιζόν αποτελείται από δικές μου εγγραφές


Αποκλειστικά για το TeenSpirit. Να μην προστεθεί αλλού.



Έχει επεξεργασθεί από τον/την Tsaklas στις Δευ Οκτ 26, 2015 12:18 pm, 6 φορές συνολικά

Μοιραστείτε αυτή τη δημοσίευση στο:Excite BookmarksDiggRedditDel.icio.usGoogleLiveSlashdotNetscapeTechnoratiStumbleUponNewsvineFurlYahooSmarking

Δημοσίευση Την / Το Τρι Μαρ 29, 2016 12:47 am από bill883

Ευχαριστω πολυ Smile

Δημοσίευση Την / Το Τρι Μαρ 29, 2016 4:10 pm από Jimis Wolf

Eyxaristw

Δημοσίευση Την / Το Δευ Ιουν 06, 2016 6:29 pm από Jimis10

Thnks

Δημοσίευση Την / Το Δευ Αυγ 15, 2016 1:43 am από Andria<3

thanks

Δημοσίευση Την / Το Δευ Σεπ 26, 2016 10:49 am από BTR_Kendall

Η αγαπημένη μου σειρά τα τελευταία χρόνια! Ευχαριστώ πολύ!

Δημοσίευση Την / Το Δευ Οκτ 31, 2016 6:58 pm από ihaveyouall

Thx!

Δημοσίευση Την / Το Δευ Ιαν 02, 2017 9:00 pm από martha35

thnx

Δημοσίευση Την / Το Σαβ Ιαν 07, 2017 9:45 pm από ZORROFOREVER

THANK YOU

Επισκόπηση προηγούμενης Θ.Ενότητας Επισκόπηση επόμενης Θ.Ενότητας Επιστροφή στην κορυφή Μήνυμα [Σελίδα 2 από 2]

Μετάβαση στη σελίδα : Επιστροφή  1, 2

Δικαιώματα σας στην κατηγορία αυτή
Δεν μπορείτε να απαντήσετε στα Θέματα αυτής της Δ.Συζήτησης