Teen Spirit

Ένα φόρουμ αποκλειστικά για νεανικές σειρές στα ελληνικά!


Μη Συνδεδεμενος Παρακαλώ συνδεθείτε ή εγγραφείτε

[MEGA] See Dad Run DTVRip (2012-2015)

Επισκόπηση προηγούμενης Θ.Ενότητας Επισκόπηση επόμενης Θ.Ενότητας Πήγαινε κάτω Μήνυμα [Σελίδα 1 από 1]

avatar

Tsaklas


Admin
Admin
http://teenspirit.forumgreek.com

[Πρέπει να είστε εγγεγραμμένοι και συνδεδεμένοι για να δείτε αυτόν το σύνδεσμο.]

Ο David Hobbs τα τελευταία 10 χρόνια παίζει τον τέλειο πατέρα σε μία από τις μεγαλύτερες κωμικές σειρές της τηλεόρασης. Αλλά όταν η σειρά τελειώνει και η σύζυγός του συνεχίζει τη δική της τηλεοπτική καριέρα, βρίσκεται αντιμέτωπος με τον πιο απαιτητικό ρόλο της ζωής του: το χειρισμό των καθημερινών αναγκών των τριών παιδιών του, τα οποία έχουν συνηθίσει να μην τον έχουν δίπλα τους. Ο David σύντομα μαθαίνει ότι το να παριστάνεις τον μπαμπά στην τηλεόραση είναι παιχνιδάκι σε σύγκριση με την πραγματική ζωή.

Tα επεισόδια προέρχονται από προσωπικά DTVRips! Έχουν προβληθεί ολόκληρες οι 2 πρώτες σαιζόν + κάποια της 3ης που γυρίστηκαν μαζί με την 2η. Δεν τα έχω όλα ακόμα, ανεβάζω ένα μεγάλο μέρος όσων έχω γράψει, υπάρχουν και λίγα που δεν έχω ακόμη επεξεργαστεί και θα προστεθούν σύντομα. Το αφιερώνω στον φίλο Κωνσταντίνο (@sparky) που με σθένος ζητούσε τα επεισόδια αλλά δεν ευκαίρησα ποτέ να του τα ανεβάσω  Laughing

Πληροφορίες αρχείων:
Γενικά
Complete name                            : C:\Users\Παναγιώτης\Desktop\See Dad Run S01E01.mp4
Format                                   : MPEG-4
Format profile                           : Base Media / Version 2
Codec ID                                 : mp42
File size                                : 167 MiB
Duration                                 : 20mn 31s
Overall bit rate                         : 1 139 Kbps
Encoded date                             : UTC 2036-02-06 06:28:16
Tagged date                              : UTC 2036-02-06 06:28:16
Writing application                      : HandBrake 0.10.2 2015060900

Video
ID                                       : 1
Format                                   : AVC
Format/Info                              : Advanced Video Codec
Format profile                           : Main@L4
Format settings, CABAC                   : Ναι
Format settings, ReFrames                : 4 frame
Codec ID                                 : avc1
Codec ID/Info                            : Advanced Video Coding
Duration                                 : 20mn 31s
Bit rate                                 : 1 000 Kbps
Width                                    : 720 εικονοστοιχεία
Height                                   : 576 εικονοστοιχεία
Display aspect ratio                     : 16:9
Frame rate                               : 25,000 fps
Standard                                 : PAL
Color space                              : YUV
Chroma subsampling                       : 4:2:0
Bit depth                                : 8 bits
Scan type                                : Συνεχής σάρωση
Bits/(Pixel*Frame)                       : 0.096
Stream size                              : 143 MiB (85%)
Writing library                          : x264 core 142 r2479 dd79a61
Encoding settings                        : cabac=1 / ref=1 / deblock=1:0:0 / analyse=0x1:0x111 / me=hex / subme=2 / psy=1 / psy_rd=1.00:0.00 / mixed_ref=0 / me_range=16 / chroma_me=1 / trellis=0 / 8x8dct=0 / cqm=0 / deadzone=21,11 / fast_pskip=1 / chroma_qp_offset=0 / threads=6 / lookahead_threads=2 / sliced_threads=0 / nr=0 / decimate=1 / interlaced=0 / bluray_compat=0 / constrained_intra=0 / bframes=3 / b_pyramid=2 / b_adapt=1 / b_bias=0 / direct=1 / weightb=1 / open_gop=0 / weightp=1 / keyint=250 / keyint_min=25 / scenecut=40 / intra_refresh=0 / rc_lookahead=10 / rc=abr / mbtree=1 / bitrate=1000 / ratetol=1.0 / qcomp=0.60 / qpmin=0 / qpmax=69 / qpstep=4 / vbv_maxrate=20000 / vbv_bufsize=25000 / nal_hrd=none / filler=0 / ip_ratio=1.40 / aq=1:1.00
Encoded date                             : UTC 2036-02-06 06:28:16
Tagged date                              : UTC 2036-02-06 06:28:16
Color range                              : Limited
Color primaries                          : BT.601 PAL
Transfer characteristics                 : BT.709
Matrix coefficients                      : BT.601

Ήχος
ID                                       : 2
Format                                   : AAC
Format/Info                              : Advanced Audio Codec
Format profile                           : LC
Codec ID                                 : 40
Duration                                 : 20mn 31s
Bit rate                                 : 160 Kbps
Channel(s)                               : 2 κανάλια
Channel positions                        : Front: L R
Sampling rate                            : 48,0 KHz
Stream size                              : 23,5 MiB (14%)
Title                                    : Stereo / Stereo
Language                                 : Greek
Encoded date                             : UTC 2036-02-06 06:28:16
Tagged date                              : UTC 2036-02-06 06:28:16
Thumbnails:
Yποτιτλισμός: Μάριος Π. Παπαγεωργίου για την AbFab Productions, ο τύπος έχει ένα μεγάλο από εμένα για την εξαιρετική δουλειά που έχει κάνει στην απόδοση των διαλόγων!

Στατιστικά project:
Season 1 Διαθέσιμα 17/20 - Δεν προβάλλει το Χριστουγεννιάτικο ακόμη οπότε 17/19
Season 2 Διαθέσιμα 12/15 - Πιθανότατα δεν προβάλλει 1 οπότε 12/14
Season 3 Διαθέσιμα 5/15, 5/5 που προβάλλει
Συνολικά Διαθέσιμα: 34/38 επεισόδια που προβάλλονται, 34/50 συνολικά

Ανεβασμένα Season 1: 17/19
Ανεβασμένα Season 2: 7/14
Ανεβασμένα Season 3: 4/5
Συνολικά ανεβασμένα: 28/38
Πρόοδος: 73,7 %



Season 1 (17/20 επεισόδια)



Season 2 (07/15 επεισόδια)


Season 3 (04/15 επεισόδια, 04/05 που προβάλλει)



Αποκλειστικά για το Teen Spirit!

Μοιραστείτε αυτή τη δημοσίευση στο:Excite BookmarksDiggRedditDel.icio.usGoogleLiveSlashdotNetscapeTechnoratiStumbleUponNewsvineFurlYahooSmarking

Δημοσίευση Την / Το Τετ Ιουν 15, 2016 6:02 am από TB87

ευχαριστω

avatar

Δημοσίευση Την / Το Τετ Ιουν 15, 2016 12:47 pm από Alex

Ευχαριστώ!

Δημοσίευση Την / Το Κυρ Ιουν 19, 2016 11:18 pm από panagiotis94

avatar

Δημοσίευση Την / Το Σαβ Ιαν 21, 2017 3:20 am από jeezus

avatar

Δημοσίευση Την / Το Σαβ Ιαν 21, 2017 3:37 am από jeezus

Tsakla πάλι εγώ Smile απο την τρίτη σεζόν τα έχω σχεδόν όλα, εγώ κοιτούσα από το imdb της πληροφορίες των επεισοδίων γιατί δείχνουν περισσότερα.
Νομίζω πρέπει να δούμε τι ακριβώς δεν έχεις γιατί καλύπτω μεγάλο κενό από τα δικά σου από ότι βλέπω.
θα σου τα στείλω αλλά θα πρέπει να δω όλα τα κοινα μας για να σου στείλω ότι σου λείπει, αλλά θα μου πάρει χρόνο.
Σε έχω φλομόσει με πράγματα αλλά νομίζω πρέπει να γίνει, για να τελειώνουν τα τοπικς.

avatar

Δημοσίευση Την / Το Δευ Ιαν 30, 2017 6:37 pm από teliosmetonma

ty

avatar

Δημοσίευση Την / Το Παρ Φεβ 03, 2017 4:51 pm από joker

ευχαριστουμε

avatar

Δημοσίευση Την / Το Κυρ Απρ 30, 2017 6:23 pm από martha35

avatar

Δημοσίευση Την / Το Τρι Μαϊος 23, 2017 11:43 pm από Αλίκη Φραγοπούλου

Ευχαριστώ!

avatar

Δημοσίευση Την / Το Σαβ Μαϊος 27, 2017 12:30 pm από intershop

κι αυτα που λειπουν ?

avatar

Δημοσίευση Την / Το Τρι Ιουν 20, 2017 8:57 pm από jeezus


σέζον 3


Είναι τα περισσότερα, απο την σεζον 3 ένα επεισόδιο λύπει.

σέζον 2


πάλι χωρίς ένα επεισόδιο

σέζον 1 δεν έχω κάτι να προσθέσω.

avatar

Δημοσίευση Την / Το Σαβ Ιουν 24, 2017 12:17 pm από Maria Mvrd

thnx!

avatar

Δημοσίευση Την / Το Κυρ Αυγ 20, 2017 7:02 pm από aleziokos

thanks

avatar

Δημοσίευση Την / Το Τετ Αυγ 23, 2017 10:53 pm από jeezus

το filetrip έκλεισε τον λογαριασμό μου έσβησαν και τα λινκς, δυστυχώς δεν τα έχω κάνει backup κάπου αλλού, μπορεί όμως να ασχοληθώ και να τα ξανά γράψω και θα τα ανεβάσω πάλι.

Επισκόπηση προηγούμενης Θ.Ενότητας Επισκόπηση επόμενης Θ.Ενότητας Επιστροφή στην κορυφή Μήνυμα [Σελίδα 1 από 1]

Δικαιώματα σας στην κατηγορία αυτή
Δεν μπορείτε να απαντήσετε στα Θέματα αυτής της Δ.Συζήτησης