Teen Spirit

Ένα φόρουμ αποκλειστικά για νεανικές σειρές στα ελληνικά!


Μη Συνδεδεμενος Παρακαλώ συνδεθείτε ή εγγραφείτε

[MEGA] How To Build A Better Boy SATRip (2014)

Επισκόπηση προηγούμενης Θ.Ενότητας Επισκόπηση επόμενης Θ.Ενότητας Πήγαινε κάτω Μήνυμα [Σελίδα 1 από 1]

avatar

Santo


Ultra Member
Ultra Member

How To Build A Better Boy



Περίληψη:
Η Γκάμπι και η Μέι δεν ιδρώνουν καν με τον κύκλο μαθημάτων για επιστήμες σε προηγμένο επίπεδο και τα διαγωνίσματα μαθηματικών, αλλά το να συνηθίσουν στο περιβάλλον του σχολείου δεν είναι και τόσο εύκολο. Έτσι, χρησιμοποιώντας το λογισμικό σχεδίασης του πατέρα της Μέι, τα κορίτσια καταπιάνονται με τη δημιουργία μιας έκδοσης υψηλής ευκρίνειας του εικονικού αγοριού της Μέι, του Άλμπερτ, ο οποίος συγκεντρώνει όλα τα χαρίσματα που κάθε κορίτσι του γυμνασίου ονειρεύεται σε ένα αγόρι.

Screenshots/Thumbnails:

Χαρακτηριστικά:
General
Complete name                  :How To Build A Better Boy (2014).mp4
Format                         : MPEG-4
Format profile                 : Base Media
Codec ID                       : isom
File size                      : 448 MiB
Duration                       : 1h 28mn
Overall bit rate mode          : Variable
Overall bit rate               : 705 Kbps
Writing application            : Lavf54.59.106

Video
ID                             : 1
Format                         : AVC
Format/Info                    : Advanced Video Codec
Format profile                 : High@L3.0
Format settings, CABAC         : Yes
Format settings, ReFrames      : 4 frames
Codec ID                       : avc1
Codec ID/Info                  : Advanced Video Coding
Duration                       : 1h 28mn
Bit rate                       : 603 Kbps
Width                          : 640 pixels
Height                         : 360 pixels
Display aspect ratio           : 16:9
Frame rate mode                : Constant
Frame rate                     : 25.000 fps
Color space                    : YUV
Chroma subsampling             : 4:2:0
Bit depth                      : 8 bits
Scan type                      : Progressive
Bits/(Pixel*Frame)             : 0.105
Stream size                    : 382 MiB (85%)
Writing library                : x264 core 130
Encoding settings              : cabac=1 / ref=1 / deblock=1:0:0 / analyse=0x3:0x3 / me=dia / subme=1 / psy=1 / psy_rd=1.00:0.00 / mixed_ref=0 / me_range=16 / chroma_me=1 / trellis=0 / 8x8dct=1 / cqm=0 / deadzone=21,11 / fast_pskip=1 / chroma_qp_offset=0 / threads=36 / lookahead_threads=2 / sliced_threads=0 / nr=0 / decimate=1 / interlaced=0 / bluray_compat=0 / constrained_intra=0 / bframes=3 / b_pyramid=2 / b_adapt=1 / b_bias=0 / direct=1 / weightb=1 / open_gop=0 / weightp=1 / keyint=250 / keyint_min=25 / scenecut=40 / intra_refresh=0 / rc_lookahead=0 / rc=crf / mbtree=0 / crf=24.0 / qcomp=0.60 / qpmin=0 / qpmax=69 / qpstep=4 / vbv_maxrate=2500 / vbv_bufsize=5000 / crf_max=0.0 / nal_hrd=none / ip_ratio=1.40 / pb_ratio=1.30 / aq=1:1.00

Audio
ID                             : 2
Format                         : AAC
Format/Info                    : Advanced Audio Codec
Format profile                 : LC
Codec ID                       : 40
Duration                       : 1h 28mn
Duration_LastFrame             : -10ms
Bit rate mode                  : Variable
Bit rate                       : 96.0 Kbps
Maximum bit rate               : 2 500 Kbps
Channel(s)                     : 2 channels
Channel positions              : Front: L R
Sampling rate                  : 44.1 KHz
Compression mode               : Lossy
Stream size                    : 60.9 MiB (14%)


Μεταγλωττιστές :
Η φωνές που ακούστηκαν ήταν:
Βασιλική Κατσικερού
Ειρήνη Τσίγκα
Δημήτρης Σάρλος
Μαριλέττα Κυριαζή
Αλέξανδρος Μολφέσης
Θανάσης Ζερίτης
Μετάφραση: Αλέξανδρος Μολφέσης
Στούντιο Ηχογράφησης: Sierra Post

Link:


Το αρχικό ανέβασμα δεν είναι δικό μου.

ΚΑΛΗ ΘΕΑΣΗ Very Happy



Έχει επεξεργασθεί από τον/την Santo στις Πεμ Δεκ 15, 2016 12:47 am, 1 φορά

Μοιραστείτε αυτή τη δημοσίευση στο:Excite BookmarksDiggRedditDel.icio.usGoogleLiveSlashdotNetscapeTechnoratiStumbleUponNewsvineFurlYahooSmarking

avatar

Δημοσίευση Την / Το Κυρ Νοε 23, 2014 6:18 pm από Alex

Ευχαριστώ!

avatar

Δημοσίευση Την / Το Κυρ Νοε 23, 2014 6:36 pm από lef0

Ευχαριστώ

Δημοσίευση Την / Το Δευ Νοε 24, 2014 4:40 am από TB87

ευχαριστω

avatar

Δημοσίευση Την / Το Τρι Νοε 25, 2014 4:23 pm από Kim Possible

ευχαριστώ

Δημοσίευση Την / Το Κυρ Δεκ 14, 2014 8:56 pm από ihaveyouall

Ωραίος!!

Δημοσίευση Την / Το Κυρ Ιουν 21, 2015 8:36 am από SD2

Δημοσίευση Την / Το Σαβ Ιουλ 25, 2015 8:50 pm από sparky92

thanks

avatar

Δημοσίευση Την / Το Δευ Σεπ 14, 2015 9:59 am από Avenger_Seraphim

ευχαριστω

avatar

Δημοσίευση Την / Το Σαβ Ιαν 30, 2016 11:33 pm από AUSTIN B.

Thx

avatar

Δημοσίευση Την / Το Τρι Μαρ 29, 2016 4:08 pm από Jimis Wolf

Thxs

avatar

Δημοσίευση Την / Το Παρ Μαϊος 13, 2016 5:13 pm από apollonara

Ευχαριστώ

avatar

Δημοσίευση Την / Το Δευ Μαϊος 30, 2016 1:07 pm από jhdr83

ευχαριστω

avatar

Δημοσίευση Την / Το Παρ Αυγ 19, 2016 3:36 pm από magicpanos

desadfas

Δημοσίευση Την / Το Δευ Αυγ 29, 2016 12:59 pm από disney12

τελεια

avatar

Δημοσίευση Την / Το Δευ Αυγ 29, 2016 7:13 pm από Kaskander

Ευχαριστώ

avatar

Δημοσίευση Την / Το Πεμ Σεπ 15, 2016 10:06 pm από Jimis10

Thnks

avatar

Δημοσίευση Την / Το Τρι Νοε 01, 2016 11:51 am από stelios

Ευχαριστώ!

avatar

Δημοσίευση Την / Το Τρι Μαρ 21, 2017 1:17 am από kitty

avatar

Δημοσίευση Την / Το Δευ Μαϊος 08, 2017 5:05 pm από kagouras

ευχαριστω

avatar

Δημοσίευση Την / Το Παρ Σεπ 22, 2017 7:18 pm από Paristre26

Very Happy Very Happy Very Happy

Επισκόπηση προηγούμενης Θ.Ενότητας Επισκόπηση επόμενης Θ.Ενότητας Επιστροφή στην κορυφή Μήνυμα [Σελίδα 1 από 1]

Δικαιώματα σας στην κατηγορία αυτή
Δεν μπορείτε να απαντήσετε στα Θέματα αυτής της Δ.Συζήτησης