Teen Spirit

Ένα φόρουμ αποκλειστικά για νεανικές σειρές στα ελληνικά!


Μη Συνδεδεμενος Παρακαλώ συνδεθείτε ή εγγραφείτε

[MEGA] A Fairly Odd Summer DTVRip (2014)

Επισκόπηση προηγούμενης Θ.Ενότητας Επισκόπηση επόμενης Θ.Ενότητας Πήγαινε κάτω Μήνυμα [Σελίδα 1 από 1]

avatar

Tsaklas


Admin
Admin
http://teenspirit.forumgreek.com

Δύο Φανταστικοί Γονείς: Διακοπές στην Χαβάη

[Πρέπει να είστε εγγεγραμμένοι και συνδεδεμένοι για να δείτε αυτόν το σύνδεσμο.]

Το καλοκαίρι έφτασε και όλη η συμμορία, συμπεριλαμβανομένων και των γονιών του Τίμι, ταξιδεύουν για τη Χαβάη. Βασικά όλοι, εκτός από τον Τίμι.

Τώρα που έχει γίνει πλέον ένας υπεύθυνος ενήλικας, ο Τίμι πρέπει να μείνει και να δουλέψει στον Νεραϊδόκοσμο. Ο Tζόργκεν του αναθέτει να προσέχει το πολύτιμο Αμπρακατάμπριουμ, την πηγή όλης της μαγείας των νεράιδων. Όμως ο Τίμι έχει μια ιδέα. Όσο το Αμπρακατάμπριουμ βρίσκεται μαζί του, μπορεί ταυτόχρονα να βρίσκεται στη Χαβάη και να διασκεδάζει αλλά παράλληλα να κάνει και τη δουλειά του! Υπάρχουν όμως δύο προβλήματα με αυτή του την ιδέα: Ο Φουπ και ο Ντένζελ Κρόκερ.

Όταν αυτοί οι δύο  μάθουν για τα σχέδια του Τίμι, αποφασίζουν να συμμαχήσουν για να κλέψουν το Αμπρακατάμπριουμ και να κυβερνήσουν τον κόσμο!

Η ταινία έκανε πρεμιέρα στην Ελλάδα την Κυριακή 12 Ιουνίου στις 11:00 το πρωί. Το αρχείο προέρχεται από προσωπικό μου DTVRip!

Πληροφορίες αρχείων:
Γενικά
Complete name                            : C:\Users\Παναγιώτης\Desktop\A Fairly Odd Summer-1.mp4
Format                                   : MPEG-4
Format profile                           : Base Media / Version 2
Codec ID                                 : mp42
File size                                : 547 MiB
Duration                                 : 1h 6mn
Overall bit rate                         : 1 159 Kbps
Encoded date                             : UTC 2036-02-06 06:28:16
Tagged date                              : UTC 2036-02-06 06:28:16
Writing application                      : HandBrake 0.10.2 2015060900

Video
ID                                       : 1
Format                                   : AVC
Format/Info                              : Advanced Video Codec
Format profile                           : Main@L4
Format settings, CABAC                   : Ναι
Format settings, ReFrames                : 5 frame
Codec ID                                 : avc1
Codec ID/Info                            : Advanced Video Coding
Duration                                 : 1h 6mn
Bit rate                                 : 1 000 Kbps
Width                                    : 720 εικονοστοιχεία
Height                                   : 576 εικονοστοιχεία
Display aspect ratio                     : 16:9
Frame rate                               : 25,000 fps
Standard                                 : PAL
Color space                              : YUV
Chroma subsampling                       : 4:2:0
Bit depth                                : 8 bits
Scan type                                : Συνεχής σάρωση
Bits/(Pixel*Frame)                       : 0.096
Stream size                              : 469 MiB (86%)
Writing library                          : x264 core 142 r2479 dd79a61
Encoding settings                        : cabac=1 / ref=5 / deblock=1:0:0 / analyse=0x1:0x111 / me=umh / subme=8 / psy=1 / psy_rd=1.00:0.00 / mixed_ref=1 / me_range=16 / chroma_me=1 / trellis=1 / 8x8dct=0 / cqm=0 / deadzone=21,11 / fast_pskip=1 / chroma_qp_offset=-2 / threads=6 / lookahead_threads=1 / sliced_threads=0 / nr=0 / decimate=1 / interlaced=0 / bluray_compat=0 / constrained_intra=0 / bframes=3 / b_pyramid=2 / b_adapt=2 / b_bias=0 / direct=3 / weightb=1 / open_gop=0 / weightp=2 / keyint=250 / keyint_min=25 / scenecut=40 / intra_refresh=0 / rc_lookahead=50 / rc=abr / mbtree=1 / bitrate=1000 / ratetol=1.0 / qcomp=0.60 / qpmin=0 / qpmax=69 / qpstep=4 / vbv_maxrate=20000 / vbv_bufsize=25000 / nal_hrd=none / filler=0 / ip_ratio=1.40 / aq=1:1.00
Encoded date                             : UTC 2036-02-06 06:28:16
Tagged date                              : UTC 2036-02-06 06:28:16
Color range                              : Limited
Color primaries                          : BT.601 PAL
Transfer characteristics                 : BT.709
Matrix coefficients                      : BT.601

Ήχος
ID                                       : 2
Format                                   : AAC
Format/Info                              : Advanced Audio Codec
Format profile                           : LC
Codec ID                                 : 40
Duration                                 : 1h 6mn
Bit rate                                 : 160 Kbps
Channel(s)                               : 2 κανάλια
Channel positions                        : Front: L R
Sampling rate                            : 48,0 KHz
Stream size                              : 75,7 MiB (14%)
Title                                    : Stereo / Stereo
Language                                 : Greek
Encoded date                             : UTC 2036-02-06 06:28:16
Tagged date                              : UTC 2036-02-06 06:28:16
Τhumbnails:
[Πρέπει να είστε εγγεγραμμένοι και συνδεδεμένοι για να δείτε αυτόν το σύνδεσμο.]




Αποκλειστικά για το Teen Spirit!

Μοιραστείτε αυτή τη δημοσίευση στο:Excite BookmarksDiggRedditDel.icio.usGoogleLiveSlashdotNetscapeTechnoratiStumbleUponNewsvineFurlYahooSmarking

avatar

Δημοσίευση Την / Το Τρι Ιουν 21, 2016 3:50 pm από lef0

Ευχαριστω!

Δημοσίευση Την / Το Σαβ Ιουλ 02, 2016 6:43 am από TB87

ευχαριστω

Δημοσίευση Την / Το Κυρ Ιουλ 03, 2016 4:04 pm από panagiotis94

Δημοσίευση Την / Το Κυρ Ιουλ 10, 2016 11:24 pm από DRAKE AND JOSH FAN!

ευχαριστω

Δημοσίευση Την / Το Δευ Ιουλ 11, 2016 10:49 am από disney12

Δημοσίευση Την / Το Τετ Ιουλ 13, 2016 12:59 am από ap-99

thanks

Δημοσίευση Την / Το Πεμ Ιουλ 14, 2016 8:31 am από ZaneX

Ευχαριστώ πολύ!

avatar

Δημοσίευση Την / Το Πεμ Ιουλ 28, 2016 7:26 pm από Vaggelic

thnx

avatar

Δημοσίευση Την / Το Παρ Ιουλ 29, 2016 2:46 pm από savvas

thanks

avatar

Δημοσίευση Την / Το Σαβ Ιουλ 30, 2016 4:19 am από marios121

Ευχαριστώ!

avatar

Δημοσίευση Την / Το Πεμ Αυγ 11, 2016 12:07 pm από Nikolas60

thanks guys

avatar

Δημοσίευση Την / Το Τρι Οκτ 18, 2016 2:48 pm από Jimis10

Thnks

avatar

Δημοσίευση Την / Το Σαβ Οκτ 29, 2016 11:58 pm από BTR_Kendall

Ευχαριστώ πολύ!

avatar

Δημοσίευση Την / Το Τρι Νοε 15, 2016 10:51 pm από paulina

thanks

avatar

Δημοσίευση Την / Το Παρ Δεκ 30, 2016 12:39 pm από teliosmetonma

ty

avatar

Δημοσίευση Την / Το Τρι Ιαν 24, 2017 9:26 am από joker

ευχαριστουμε

avatar

Δημοσίευση Την / Το Σαβ Σεπ 09, 2017 2:25 am από Megas7

thanks

Επισκόπηση προηγούμενης Θ.Ενότητας Επισκόπηση επόμενης Θ.Ενότητας Επιστροφή στην κορυφή Μήνυμα [Σελίδα 1 από 1]

Δικαιώματα σας στην κατηγορία αυτή
Δεν μπορείτε να απαντήσετε στα Θέματα αυτής της Δ.Συζήτησης