Teen Spirit

Ένα φόρουμ αποκλειστικά για νεανικές σειρές στα ελληνικά!


Μη Συνδεδεμενος Παρακαλώ συνδεθείτε ή εγγραφείτε

[MEGA] Man of Steel HDTVRip (2013)

Επισκόπηση προηγούμενης Θ.Ενότητας Επισκόπηση επόμενης Θ.Ενότητας Πήγαινε κάτω Μήνυμα [Σελίδα 1 από 1]

avatar

Tsaklas


Admin
Admin
http://teenspirit.forumgreek.com



Ο πλανήτης Κρύπτον απειλείται με άμεση καταστροφή.  Ο επιστήμονας Τζορ-Ελ και η σύζυγός του Λάρα, αποφασίζουν να σώσουν τον νεογέννητο γιο τους Καλ-Ελ και τον στέλνουν με ένα μικρό διαστημόπλοιο στη Γη. Έχουν φροντίσει όμως να εισχωρήσουν στον οργανισμό του  έναν γεννητικό κώδικα ώστε να διατηρήσει τη φυλή του Κρύπτον. Ο Καλ-Ελ μεγαλώνει ως ο υιοθετημένος γιος ενός ζευγαριού στη Γη, του  Τζόναθαν και της Μάρθα Κεντ, οι οποίοι του δίνουν το όνομα Κλαρκ. Εξαιτίας της πραγματικής του καταγωγής, ο Κλαρκ έχει υπεράνθρωπες δυνάμεις, οι οποίες αρχικά του δυσκολεύουν τη ζωή αλλά σταδιακά μαθαίνει να τις ελέγχει και να βοηθάει άλλους ανθρώπους, που βρίσκονται σε ανάγκη ή κίνδυνο. Ο Τζόναθαν αποκαλύπτει στον έφηβο Κλαρκ ότι είναι εξωγήινος και τον συμβουλεύει να μην χρησιμοποιεί τις δυνάμεις τους δημοσίως καθώς φοβάται ότι η κοινωνία δεν θα τον δεχτεί. Μετά το θάνατο του Τζόναθαν, ο ενήλικος πια Κλαρκ, αποφασίζει να φύγει από την πόλη, που μεγάλωσε. Ξεκινάει μια εντυπωσιακή περιπέτεια, αναζητώντας τις ρίζες του και την αποστολή του σ’ αυτό τον κόσμο. Περνάει αρκετά χρόνια περιπλανώμενος σε διάφορες πόλεις, κάνοντας διαφορετικές δουλειές και χρησιμοποιώντας ψεύτικα ονόματα ενώ ταυτόχρονα βοηθάει ανθρώπους. Ένα τυχαίο γεγονός, θα φέρει στο δρόμο του τη μαχητική δημοσιογράφο Λόις Λέιν, της οποίας και θα σώσει τη ζωή. Η Λόις βάζει στόχο να εντοπίσει τον Κλαρκ με την πρόθεση να γράψει ένα άρθρο για τον υπεράνθρωπο, που βρίσκεται ανάμεσά τους.  Ένας ακόμη μεγαλύτερος κίνδυνος όμως παραμονεύει για τον Κλαρκ αλλά και όλον τον πλανήτη Γη.  Αν όμως, θέλει να σώσει τον κόσμο από τον αφανισμό και να αποτελέσει το σύμβολο της ελπίδας για την ανθρωπότητα, ο Κλαρκ δεν έχει άλλη επιλογή από το να αφήσει τον ήρωα που κρύβει μέσα του να λάμψει...

Η ταινία προέρχεται από δική μου ψηφιακή εγγραφη υψηλής ευκρίνειας μέσω του STAR HD.

Πληροφορίες αρχείων:
Γενικά
Complete name                            : C:\Users\Παναγιώτης\Desktop\Man Of Steel (2013) HDTVRip [Tsaklas].mp4
Format                                   : MPEG-4
Format profile                           : Base Media / Version 2
Codec ID                                 : mp42
File size                                : 2,89 GiB
Duration                                 : 2h 7mn
Overall bit rate                         : 3 254 Kbps
Encoded date                             : UTC 2036-02-06 06:28:16
Tagged date                              : UTC 2036-02-06 06:28:16
Writing application                      : HandBrake 0.10.2 2015060900

Video
ID                                       : 1
Format                                   : AVC
Format/Info                              : Advanced Video Codec
Format profile                           : Baseline@L4
Format settings, CABAC                   : Όχι
Format settings, ReFrames                : 1 frame
Codec ID                                 : avc1
Codec ID/Info                            : Advanced Video Coding
Duration                                 : 2h 7mn
Bit rate                                 : 3 100 Kbps
Width                                    : 1 920 εικονοστοιχεία
Height                                   : 1 080 εικονοστοιχεία
Display aspect ratio                     : 16:9
Frame rate                               : 25,000 fps
Color space                              : YUV
Chroma subsampling                       : 4:2:0
Bit depth                                : 8 bits
Scan type                                : Συνεχής σάρωση
Bits/(Pixel*Frame)                       : 0.060
Stream size                              : 2,74 GiB (95%)
Writing library                          : x264 core 142 r2479 dd79a61
Encoding settings                        : cabac=0 / ref=1 / deblock=0:0:0 / analyse=0:0 / me=dia / subme=0 / psy=1 / psy_rd=1.00:0.00 / mixed_ref=0 / me_range=16 / chroma_me=1 / trellis=0 / 8x8dct=0 / cqm=0 / deadzone=21,11 / fast_pskip=1 / chroma_qp_offset=0 / threads=6 / lookahead_threads=1 / sliced_threads=0 / nr=0 / decimate=1 / interlaced=0 / bluray_compat=0 / constrained_intra=0 / bframes=0 / weightp=0 / keyint=250 / keyint_min=25 / scenecut=0 / intra_refresh=0 / rc_lookahead=0 / rc=abr / mbtree=0 / bitrate=3100 / ratetol=1.0 / qcomp=0.60 / qpmin=0 / qpmax=69 / qpstep=4 / vbv_maxrate=20000 / vbv_bufsize=25000 / nal_hrd=none / filler=0 / ip_ratio=1.40 / aq=0
Encoded date                             : UTC 2036-02-06 06:28:16
Tagged date                              : UTC 2036-02-06 06:28:16
Color range                              : Limited
Color primaries                          : BT.709
Transfer characteristics                 : BT.709
Matrix coefficients                      : BT.709

Ήχος
ID                                       : 2
Format                                   : AAC
Format/Info                              : Advanced Audio Codec
Format profile                           : LC
Codec ID                                 : 40
Duration                                 : 2h 7mn
Bit rate                                 : 160 Kbps
Channel(s)                               : 2 κανάλια
Channel positions                        : Front: L R
Sampling rate                            : 48,0 KHz
Stream size                              : 146 MiB (5%)
Title                                    : Stereo / Stereo
Language                                 : Greek
Encoded date                             : UTC 2036-02-06 06:28:16
Tagged date                              : UTC 2036-02-06 06:28:16
Thumbnails:
Συντελεστές:
Κλαρκ Κεντ (Σούπερμαν): Henry Cavill
Λόις Λέιν: Amy Adams
Στρατηγός Zod: Michael Shannon
Tζόναθαν Κεντ: Kevin Costner
Mάρθα Κεντ: Diana Lane
Πέρρυ Γουάιτ: Lawrence Fishburne
Φαόρα Χουούι: Antje Traue
Στρατηγός Νέιθαν Χάρντι: Christopher Meloni
Λάρα Λορ-βαν: Ayelet Zurer
Τζορ-Ελ: Russel Crowe
Συμμετέχουν: Harry Lennix, Christina Wren, Richard Schiff, Carla Gugino, Mackenzie Gray, Michael Kelly, Jadin Gould, Rebecca Buller, Rowen Kahn κ.α.

Σκηνοθεσία: Zack Snyder
Παραγωγή: Christopher Nolan, Charles Roven, Emma Thomas, Deborah Snyder
Σενάριο: David S. Goyer, Christopher Nolan
Μουσική επιμέλεια: Hans Zimmer




Αποκλειστικά για το TeenSpirit!

Μοιραστείτε αυτή τη δημοσίευση στο:Excite BookmarksDiggRedditDel.icio.usGoogleLiveSlashdotNetscapeTechnoratiStumbleUponNewsvineFurlYahooSmarking

Δημοσίευση Την / Το Σαβ Ιουλ 02, 2016 5:41 am από TB87

ευχαριστω Tsaklas!

Επισκόπηση προηγούμενης Θ.Ενότητας Επισκόπηση επόμενης Θ.Ενότητας Επιστροφή στην κορυφή Μήνυμα [Σελίδα 1 από 1]

Δικαιώματα σας στην κατηγορία αυτή
Δεν μπορείτε να απαντήσετε στα Θέματα αυτής της Δ.Συζήτησης