Teen Spirit

Ένα φόρουμ αποκλειστικά για νεανικές σειρές στα ελληνικά!


Μη Συνδεδεμενος Παρακαλώ συνδεθείτε ή εγγραφείτε

[MEGA] Asterix Aux Jeux Olympiques DTVRip (2008)

Επισκόπηση προηγούμενης Θ.Ενότητας Επισκόπηση επόμενης Θ.Ενότητας Πήγαινε κάτω Μήνυμα [Σελίδα 1 από 1]

avatar

Tsaklas


Admin
Admin
http://teenspirit.forumgreek.com

Ο Αστερίξ στους Ολυμπιακούς Αγώνες


Τυφλά ερωτευμένος με την πανέμορφη Ειρήνη, πριγκίπισσα της Ελλάδας, ο νεαρός Γαλάτης Καψουρίξ δεν επιθυμεί τίποτε άλλο παρά να κερδίσει την καρδιά της. Όμως, προς το παρόν, ο Καψουρίξ ταλαιπωρεί τους συγχωριανούς του με τους αναστεναγμούς του και την.. υπέρβαρη θλίψη του. Ο Αστερίξ και ο Οβελίξ, που δεν αντέχουν να τον βλέπουν στεναχωρημένο, αποφασίζουν να τον βοηθήσουν να διεκδικήσει την Ειρήνη. Έτσι, όταν η κοπέλα ανακοινώνει πως θα παντρευτεί όποιον νικήσει στους Ολυμπιακούς Αγώνες, στρώνονται αμέσως στη δουλειά για να προπονήσουν τον Καψουρίξ καθώς ο τελευταίος δεν φημίζεται για τις αθλητικές του επιδόσεις.

Ο Καψουρίξ, παρέα με τον Αστερίξ, τον Οβελίξ και τον δρυίδη Πανοραμίξ, παρασκευαστή του μαγικού φίλτρου, καταφθάνουν στην αρχαία Ολυμπία, για να συμμετάσχουν στους αγώνες. Εκεί, αθλητές συγκεντρωμένοι απ’ όλο τον κόσμο, προπονούνται μανιωδώς, αποφασισμένοι να διεκδικήσουν την καρδιά της ελληνίδας πριγκίπισσας. Τα πράγματα μπλέκονται όμως ακόμη περισσότερο καθώς την πανέμορφη Ειρήνη έχει «βάλει στο μάτι» και ο Βρούτος, ο δολοπλόκος γιος του Καίσαρα. Χωρίς ενδοιασμούς και λάτρης των… βρόμικων και στημένων παιχνιδιών, ο Βρούτος «επιστρατεύει» την πονηριά και εμπειρία του στις σκευωρίες για να καρπωθεί τις δάφνες του νικητή. Όμως ο Αστερίξ και ο Οβελίξ δεν είναι διατεθειμένοι να μείνουν με σταυρωμένα χέρια…

Η ταινία προέρχεται από προσωπικό DTVRip μέσω της συχνότητας του STAR, που την προέβαλε πριν λίγες μέρες.

Πληροφορίες αρχείων:
Γενικά
Complete name                            : C:\Users\Παναγιώτης\Desktop\Asterix Aux Jeux Olympiques (2008) DTVRip [Tsaklas].mp4
Format                                   : MPEG-4
Format profile                           : Base Media / Version 2
Codec ID                                 : mp42
File size                                : 955 MiB
Duration                                 : 1h 50mn
Overall bit rate                         : 1 212 Kbps
Encoded date                             : UTC 2036-02-06 06:28:16
Tagged date                              : UTC 2036-02-06 06:28:16
Writing application                      : HandBrake 0.10.2 2015060900

Video
ID                                       : 1
Format                                   : AVC
Format/Info                              : Advanced Video Codec
Format profile                           : Main@L4
Format settings, CABAC                   : Ναι
Format settings, ReFrames                : 4 frame
Codec ID                                 : avc1
Codec ID/Info                            : Advanced Video Coding
Duration                                 : 1h 50mn
Bit rate                                 : 1 050 Kbps
Width                                    : 720 εικονοστοιχεία
Height                                   : 576 εικονοστοιχεία
Display aspect ratio                     : 16:9
Frame rate                               : 25,000 fps
Standard                                 : PAL
Color space                              : YUV
Chroma subsampling                       : 4:2:0
Bit depth                                : 8 bits
Scan type                                : Συνεχής σάρωση
Bits/(Pixel*Frame)                       : 0.101
Stream size                              : 824 MiB (86%)
Writing library                          : x264 core 142 r2479 dd79a61
Encoding settings                        : cabac=1 / ref=2 / deblock=1:0:0 / analyse=0x1:0x111 / me=hex / subme=6 / psy=1 / psy_rd=1.00:0.00 / mixed_ref=1 / me_range=16 / chroma_me=1 / trellis=1 / 8x8dct=0 / cqm=0 / deadzone=21,11 / fast_pskip=1 / chroma_qp_offset=-2 / threads=6 / lookahead_threads=1 / sliced_threads=0 / nr=0 / decimate=1 / interlaced=0 / bluray_compat=0 / constrained_intra=0 / bframes=3 / b_pyramid=2 / b_adapt=1 / b_bias=0 / direct=1 / weightb=1 / open_gop=0 / weightp=1 / keyint=250 / keyint_min=25 / scenecut=40 / intra_refresh=0 / rc_lookahead=30 / rc=abr / mbtree=1 / bitrate=1050 / ratetol=1.0 / qcomp=0.60 / qpmin=0 / qpmax=69 / qpstep=4 / vbv_maxrate=20000 / vbv_bufsize=25000 / nal_hrd=none / filler=0 / ip_ratio=1.40 / aq=1:1.00
Encoded date                             : UTC 2036-02-06 06:28:16
Tagged date                              : UTC 2036-02-06 06:28:16
Color range                              : Limited
Color primaries                          : BT.601 PAL
Transfer characteristics                 : BT.709
Matrix coefficients                      : BT.601

Ήχος
ID                                       : 2
Format                                   : AAC
Format/Info                              : Advanced Audio Codec
Format profile                           : LC
Codec ID                                 : 40
Duration                                 : 1h 50mn
Bit rate                                 : 160 Kbps
Channel(s)                               : 2 κανάλια
Channel positions                        : Front: L R
Sampling rate                            : 48,0 KHz
Stream size                              : 126 MiB (13%)
Title                                    : Stereo / Stereo
Language                                 : Greek
Encoded date                             : UTC 2036-02-06 06:28:16
Tagged date                              : UTC 2036-02-06 06:28:16
Thumbnails:




Aποκλειστικά για το TeenSpirit!

Μοιραστείτε αυτή τη δημοσίευση στο:Excite BookmarksDiggRedditDel.icio.usGoogleLiveSlashdotNetscapeTechnoratiStumbleUponNewsvineFurlYahooSmarking

avatar

Δημοσίευση Την / Το Δευ Ιουλ 11, 2016 10:41 am από Tsaklas

MΠΗΚΕ ΤΟ LINK! Καλή θέαση!

Δημοσίευση Την / Το Τρι Ιουλ 19, 2016 7:25 am από TB87

ευχαριστω

avatar

Δημοσίευση Την / Το Πεμ Ιουλ 20, 2017 3:13 am από mikey900

ευχαριστω πολυ!

Επισκόπηση προηγούμενης Θ.Ενότητας Επισκόπηση επόμενης Θ.Ενότητας Επιστροφή στην κορυφή Μήνυμα [Σελίδα 1 από 1]

Δικαιώματα σας στην κατηγορία αυτή
Δεν μπορείτε να απαντήσετε στα Θέματα αυτής της Δ.Συζήτησης