Teen Spirit

Ένα φόρουμ αποκλειστικά για νεανικές σειρές στα ελληνικά!


Μη Συνδεδεμενος Παρακαλώ συνδεθείτε ή εγγραφείτε

[MEGA] The Troop DTVRip [COMPLETE SERIES] (2009)

Μετάβαση στη σελίδα : Επιστροφή  1, 2, 3  Επόμενο

Επισκόπηση προηγούμενης Θ.Ενότητας Επισκόπηση επόμενης Θ.Ενότητας Πήγαινε κάτω Μήνυμα [Σελίδα 2 από 3]


Tsaklas


Admin
Admin
http://teenspirit.forumgreek.com

Προστέθηκε και το S02E07! Ολοκληρώθηκε η σειρά!

Όλοι στο σχολείο πιστεύουν ότι ο Jake, η Hayley και ο Felix είναι νορμάλ παιδιά. Αλλά δεν είναι έτσι τα πράγματα. Η αλήθεια είναι ότι αυτά τα παιδιά ανήκουν σε μια μυστική υπηρεσία που ονομάζεται «The Troop». H αποστολή τους: να κρατάνε τον πληθυσμό των τεράτων υπό έλεγχο!

Άλλη μια καταπληκτική σειρά που προβλήθηκε μέσω του Nickelodeon. Τα επεισόδια είναι από προσωπικές μου εγγραφές, θα προστεθούν όλα σταδιακά.



Χαρακτηριστικά:
General
Complete name                    : C:\Users\Tsaklas\Desktop\Νεανικές Σειρές Handbrake\The Troop\The Troop S01E05.mp4
Format                           : MPEG-4
Format profile                   : Base Media / Version 2
Codec ID                         : mp42
File size                        : 185 MiB
Duration                         : 23mn 16s
Overall bit rate                 : 1 109 Kbps
Encoded date                     : UTC 2014-11-15 10:27:43
Tagged date                      : UTC 2014-11-15 10:45:54
Writing application              : HandBrake 0.9.9 2013052900

Video
ID                               : 1
Format                           : AVC
Format/Info                      : Advanced Video Codec
Format profile                   : Main@L4.0
Format settings, CABAC           : Yes
Format settings, ReFrames        : 4 frames
Codec ID                         : avc1
Codec ID/Info                    : Advanced Video Coding
Duration                         : 23mn 16s
Bit rate mode                    : Variable
Bit rate                         : 945 Kbps
Width                            : 702 pixels
Height                           : 574 pixels
Display aspect ratio             : 16:9
Frame rate mode                  : Constant
Frame rate                       : 25.000 fps
Color space                      : YUV
Chroma subsampling               : 4:2:0
Bit depth                        : 8 bits
Scan type                        : Progressive
Bits/(Pixel*Frame)               : 0.094
Stream size                      : 157 MiB (85%)
Writing library                  : x264 core 130 r2273 b3065e6
Encoding settings                : cabac=1 / ref=1 / deblock=1:0:0 / analyse=0x1:0x111 / me=hex / subme=2 / psy=1 / psy_rd=1.00:0.00 / mixed_ref=0 / me_range=16 / chroma_me=1 / trellis=0 / 8x8dct=0 / cqm=0 / deadzone=21,11 / fast_pskip=1 / chroma_qp_offset=0 / threads=3 / lookahead_threads=1 / sliced_threads=0 / nr=0 / decimate=1 / interlaced=0 / bluray_compat=0 / constrained_intra=0 / bframes=3 / b_pyramid=2 / b_adapt=1 / b_bias=0 / direct=1 / weightb=1 / open_gop=0 / weightp=1 / keyint=250 / keyint_min=25 / scenecut=40 / intra_refresh=0 / rc_lookahead=10 / rc=crf / mbtree=1 / crf=25.0 / qcomp=0.60 / qpmin=0 / qpmax=69 / qpstep=4 / vbv_maxrate=20000 / vbv_bufsize=25000 / crf_max=0.0 / nal_hrd=none / ip_ratio=1.40 / aq=1:1.00
Encoded date                     : UTC 2014-11-15 10:27:43
Tagged date                      : UTC 2014-11-15 10:45:50
Color primaries                  : BT.470-6 System B, BT.470-6 System G, BT.601-6 625, BT.1358 625, BT.1700 625 PAL, BT.1700 625 SECAM
Transfer characteristics         : BT.709-5, BT.1361
Matrix coefficients              : BT.601-6 525, BT.1358 525, BT.1700 NTSC, SMPTE 170M

Audio
ID                               : 2
Format                           : AAC
Format/Info                      : Advanced Audio Codec
Format profile                   : LC
Codec ID                         : 40
Duration                         : 23mn 16s
Bit rate mode                    : Variable
Bit rate                         : 160 Kbps
Maximum bit rate                 : 198 Kbps
Channel(s)                       : 2 channels
Channel positions                : Front: L R
Sampling rate                    : 48.0 KHz
Compression mode                 : Lossy
Stream size                      : 26.6 MiB (14%)
Language                         : Greek
Encoded date                     : UTC 2014-11-15 10:27:43
Tagged date                      : UTC 2014-11-15 10:45:49
Thumbnails:
Πατήστε πάνω στην εικόνα για να την δείτε:
Συντελεστές:
Τζέικ: Nicholas Purcell
Χέιλι: Gage Golightly
Φήλιξ: David DelRio
Κύριος Στόκλεϊ: John Marshall Jones
Κίρμπυ: Matt Shively (2ος Κύκλος)
Κέιντενς: Malese Jow (2ος Κύκλος)

Δημιουργός: Max Burnett
Yπότιτλοι: AbFab Productions
Στατιστικά project:
Διαθέσιμα Season 1: 26/26
Διαθέσιμα Season 2: 14/14
Ανεβασμένα Season 1: 26/26
Ανεβασμένα Season 2: 14/14
Ανεβασμένα σύνολο: 49/40
Πρόοδος project: 100%


Season 1 - Ολοκληρωμένη!


Season 2


To project είναι αποκλειστικά για το TeenSpirit. Να μην προστεθεί αλλού.



Έχει επεξεργασθεί από τον/την Tsaklas στις Σαβ Δεκ 26, 2015 10:05 am, 31 φορές συνολικά

Μοιραστείτε αυτή τη δημοσίευση στο:Excite BookmarksDiggRedditDel.icio.usGoogleLiveSlashdotNetscapeTechnoratiStumbleUponNewsvineFurlYahooSmarking

Δημοσίευση Την / Το Σαβ Νοε 14, 2015 4:13 pm από Mandrake

Σ' ευχαριστώ πολύ και πάλι!!

Δημοσίευση Την / Το Τρι Νοε 24, 2015 7:06 pm από Tsaklas

Προστέθηκαν τα επεισόδια 20, 23, 24!

Δημοσίευση Την / Το Πεμ Νοε 26, 2015 7:21 pm από Tsaklas

Oλοκληρώθηκε η Season 1 με τα επεισόδια S01E25, S01E26!

Δημοσίευση Την / Το Παρ Νοε 27, 2015 6:01 pm από Tsaklas

Προστέθηκαν τα επεισόδια 1,2,3 του 2ου Κύκλου!

Δημοσίευση Την / Το Πεμ Δεκ 03, 2015 8:35 pm από Tsaklas

Προστέθηκαν τα επεισόδια 4, 5, 8 της 2ης σαιζόν!

Δημοσίευση Την / Το Κυρ Δεκ 06, 2015 11:12 am από Tsaklas

Προστέθηκαν τα επεισόδια 9, 10, 11 της 2ης σαιζόν!

Δημοσίευση Την / Το Τρι Δεκ 08, 2015 11:20 pm από Tsaklas

Προστέθηκαν τα επεισόδια 12, 13, 14 της 2ης σαιζόν!

Δημοσίευση Την / Το Σαβ Δεκ 26, 2015 10:05 am από Tsaklas

Προστέθηκε και το S02E07 που έλειπε! Ολοκληρώθηκε η σειρά!

Δημοσίευση Την / Το Πεμ Ιαν 07, 2016 6:36 pm από BATNICK

[Πρέπει να είστε εγγεγραμμένοι και συνδεδεμένοι για να δείτε αυτόν το σύνδεσμο.] έγραψε:Προστέθηκε και το S02E07 που έλειπε! Ολοκληρώθηκε η σειρά!

Δημοσίευση Την / Το Παρ Ιαν 08, 2016 3:35 pm από evstav

thx

Δημοσίευση Την / Το Παρ Ιαν 08, 2016 11:06 pm από DRAKE AND JOSH FAN!

ευχαριστω

Δημοσίευση Την / Το Παρ Ιαν 08, 2016 11:07 pm από DRAKE AND JOSH FAN!

ευχαριστω

Δημοσίευση Την / Το Σαβ Ιαν 09, 2016 11:37 pm από DRAKE AND JOSH FAN!

To link του επεισοδίου 13 είναι το ίδιο με το link του επεισοδίου 9.

Δημοσίευση Την / Το Δευ Φεβ 29, 2016 4:10 pm από stefania12

ορεα σιρα

Δημοσίευση Την / Το Παρ Μαρ 04, 2016 1:24 am από xarhs

thanks

Δημοσίευση Την / Το Τρι Μαρ 29, 2016 2:43 pm από Jimis Wolf

Ευχαριστω παρα πολυ,μου ελειψε αυτη η σειρα και την εψαχνσ

Δημοσίευση Την / Το Πεμ Μαϊος 05, 2016 1:39 pm από AUSTIN B.

Thx

Δημοσίευση Την / Το Τετ Ιουλ 06, 2016 9:23 pm από sinsinsonson

Ευχαριστούμε.

Δημοσίευση Την / Το Πεμ Ιουλ 07, 2016 10:07 pm από ioannis95

ευχαριστω πολυ!!!

Δημοσίευση Την / Το Σαβ Αυγ 13, 2016 11:44 pm από Andria<3

thanks!!!

Δημοσίευση Την / Το Δευ Οκτ 31, 2016 9:29 pm από ihaveyouall

Thx

Δημοσίευση Την / Το Τρι Νοε 01, 2016 1:28 pm από apollonara

Ευχαριστώ

Δημοσίευση Την / Το Τρι Νοε 01, 2016 3:47 pm από i.tzer

[Πρέπει να είστε εγγεγραμμένοι και συνδεδεμένοι για να δείτε αυτόν το σύνδεσμο.] έγραψε:Προστέθηκε και το S02E07! Ολοκληρώθηκε η σειρά!

Όλοι στο σχολείο πιστεύουν ότι ο Jake, η Hayley και ο Felix είναι νορμάλ παιδιά. Αλλά δεν είναι έτσι τα πράγματα. Η αλήθεια είναι ότι αυτά τα παιδιά ανήκουν σε μια μυστική υπηρεσία που ονομάζεται «The Troop». H αποστολή τους: να κρατάνε τον πληθυσμό των τεράτων υπό έλεγχο!

Άλλη μια καταπληκτική σειρά που προβλήθηκε μέσω του Nickelodeon. Τα επεισόδια είναι από προσωπικές μου εγγραφές, θα προστεθούν όλα σταδιακά.



Χαρακτηριστικά:
General
Complete name                    : C:\Users\Tsaklas\Desktop\Νεανικές Σειρές Handbrake\The Troop\The Troop S01E05.mp4
Format                           : MPEG-4
Format profile                   : Base Media / Version 2
Codec ID                         : mp42
File size                        : 185 MiB
thanks!!!
Duration                         : 23mn 16s
Overall bit rate                 : 1 109 Kbps
Encoded date                     : UTC 2014-11-15 10:27:43
Tagged date                      : UTC 2014-11-15 10:45:54
Writing application              : HandBrake 0.9.9 2013052900

Video
ID                               : 1
Format                           : AVC
Format/Info                      : Advanced Video Codec
Format profile                   : Main@L4.0
Format settings, CABAC           : Yes
Format settings, ReFrames        : 4 frames
Codec ID                         : avc1
Codec ID/Info                    : Advanced Video Coding
Duration                         : 23mn 16s
Bit rate mode                    : Variable
Bit rate                         : 945 Kbps
Width                            : 702 pixels
Height                           : 574 pixels
Display aspect ratio             : 16:9
Frame rate mode                  : Constant
Frame rate                       : 25.000 fps
Color space                      : YUV
Chroma subsampling               : 4:2:0
Bit depth                        : 8 bits
Scan type                        : Progressive
Bits/(Pixel*Frame)               : 0.094
Stream size                      : 157 MiB (85%)
Writing library                  : x264 core 130 r2273 b3065e6
Encoding settings                : cabac=1 / ref=1 / deblock=1:0:0 / analyse=0x1:0x111 / me=hex / subme=2 / psy=1 / psy_rd=1.00:0.00 / mixed_ref=0 / me_range=16 / chroma_me=1 / trellis=0 / 8x8dct=0 / cqm=0 / deadzone=21,11 / fast_pskip=1 / chroma_qp_offset=0 / threads=3 / lookahead_threads=1 / sliced_threads=0 / nr=0 / decimate=1 / interlaced=0 / bluray_compat=0 / constrained_intra=0 / bframes=3 / b_pyramid=2 / b_adapt=1 / b_bias=0 / direct=1 / weightb=1 / open_gop=0 / weightp=1 / keyint=250 / keyint_min=25 / scenecut=40 / intra_refresh=0 / rc_lookahead=10 / rc=crf / mbtree=1 / crf=25.0 / qcomp=0.60 / qpmin=0 / qpmax=69 / qpstep=4 / vbv_maxrate=20000 / vbv_bufsize=25000 / crf_max=0.0 / nal_hrd=none / ip_ratio=1.40 / aq=1:1.00
Encoded date                     : UTC 2014-11-15 10:27:43
Tagged date                      : UTC 2014-11-15 10:45:50
Color primaries                  : BT.470-6 System B, BT.470-6 System G, BT.601-6 625, BT.1358 625, BT.1700 625 PAL, BT.1700 625 SECAM
Transfer characteristics         : BT.709-5, BT.1361
Matrix coefficients              : BT.601-6 525, BT.1358 525, BT.1700 NTSC, SMPTE 170M

Audio
ID                               : 2
Format                           : AAC
Format/Info                      : Advanced Audio Codec
Format profile                   : LC
Codec ID                         : 40
Duration                         : 23mn 16s
Bit rate mode                    : Variable
Bit rate                         : 160 Kbps
Maximum bit rate                 : 198 Kbps
Channel(s)                       : 2 channels
Channel positions                : Front: L R
Sampling rate                    : 48.0 KHz
Compression mode                 : Lossy
Stream size                      : 26.6 MiB (14%)
Language                         : Greek
Encoded date                     : UTC 2014-11-15 10:27:43
Tagged date                      : UTC 2014-11-15 10:45:49
Thumbnails:
Πατήστε πάνω στην εικόνα για να την δείτε:
Συντελεστές:
Τζέικ: Nicholas Purcell
Χέιλι: Gage Golightly
Φήλιξ: David DelRio
Κύριος Στόκλεϊ: John Marshall Jones
Κίρμπυ: Matt Shively (2ος Κύκλος)
Κέιντενς: Malese Jow (2ος Κύκλος)

Δημιουργός: Max Burnett
Yπότιτλοι: AbFab Productions
Στατιστικά project:
Διαθέσιμα Season 1: 26/26
Διαθέσιμα Season 2: 14/14
Ανεβασμένα Season 1: 26/26
Ανεβασμένα Season 2: 14/14
Ανεβασμένα σύνολο: 49/40
Πρόοδος project: 100%


Season 1 - Ολοκληρωμένη!


Season 2


To project είναι αποκλειστικά για το TeenSpirit. Να μην προστεθεί αλλού.

Δημοσίευση Την / Το Τρι Νοε 01, 2016 3:49 pm από i.tzer

thanks

Δημοσίευση Την / Το Τετ Νοε 02, 2016 10:43 pm από Jimis10

Thnks

Επισκόπηση προηγούμενης Θ.Ενότητας Επισκόπηση επόμενης Θ.Ενότητας Επιστροφή στην κορυφή Μήνυμα [Σελίδα 2 από 3]

Μετάβαση στη σελίδα : Επιστροφή  1, 2, 3  Επόμενο

Δικαιώματα σας στην κατηγορία αυτή
Δεν μπορείτε να απαντήσετε στα Θέματα αυτής της Δ.Συζήτησης