Teen Spirit

Ένα φόρουμ αποκλειστικά για νεανικές σειρές στα ελληνικά!


Μη Συνδεδεμενος Παρακαλώ συνδεθείτε ή εγγραφείτε

[MEGA] The Naked Brothers Band DTVRip (2007)

Επισκόπηση προηγούμενης Θ.Ενότητας Επισκόπηση επόμενης Θ.Ενότητας Πήγαινε κάτω Μήνυμα [Σελίδα 1 από 1]

avatar

Tsaklas


Admin
Admin
http://teenspirit.forumgreek.com

[Πρέπει να είστε εγγεγραμμένοι και συνδεδεμένοι για να δείτε αυτόν το σύνδεσμο.]

Το «Naked Brothers Band» παρουσιάζει τα κατορθώματα του Nat και του Alex Wolff, μέλη μιας εξαιρετικά επιτυχημένης μπάντας. Πρόκειται για νεαρούς ποπ σταρ που διαχειρίζονται την πρώιμη διασημότητα και παράλληλα έρχονται αντιμέτωποι με το ρομαντισμό, την αδερφική αντιπαλότητα και την αγωνία της επερχόμενης εφηβείας. Προφανώς, πολλοί έφηβοι μπορούν να ταυτιστούν μαζί τους. Πως θα ισορροπήσουν ανάμεσα στα θετικά και τα αρνητικά που φέρνει η δημοσιότητα με την εμπειρία του νεαρού της ηλικίας τους;

Πρόκειται για 17/22 λεπτά ενός μοναδικού επεισοδίου που κατάφερα να διασώσω. Το επεισόδιο αποτελεί εγγραφή του καταπληκτικού @JasonC που είχε τότε ιστοσελίδα όπου ανέβαιναν όλες οι σειρές του Nickelodeon, γι'αυτό και το λογότυπο πάνω στο επεισόδιο. Τον ευχαριστούμε θερμά. Η δική μου συμβολή περιορίστηκε στο να κάνω re-size το επεισόδιο και re-upload.

Πληροφορίες αρχείου:
Γενικά
Complete name                            : C:\Users\Παναγιώτης\Desktop\Naked Brothers Band S03E01.mp4
Format                                   : MPEG-4
Format profile                           : Base Media
Codec ID                                 : isom
File size                                : 295 MiB
Duration                                 : 17mn 19s
Overall bit rate                         : 2 381 Kbps
Writing application                      : Lavf56.25.101

Video
ID                                       : 1
Format                                   : AVC
Format/Info                              : Advanced Video Codec
Format profile                           : High@L3.1
Format settings, CABAC                   : Ναι
Format settings, ReFrames                : 4 frame
Codec ID                                 : avc1
Codec ID/Info                            : Advanced Video Coding
Duration                                 : 17mn 19s
Bit rate                                 : 2 279 Kbps
Width                                    : 1 024 εικονοστοιχεία
Height                                   : 576 εικονοστοιχεία
Display aspect ratio                     : 16:9
Frame rate                               : 29,635 fps
Original frame rate                      : 29,970 fps
Minimum frame rate                       : 1,665 fps
Maximum frame rate                       : 29,971 fps
Color space                              : YUV
Chroma subsampling                       : 4:2:0
Bit depth                                : 8 bits
Scan type                                : Συνεχής σάρωση
Bits/(Pixel*Frame)                       : 0.130
Stream size                              : 282 MiB (96%)
Writing library                          : x264 core 142 r2389 956c8d8
Encoding settings                        : cabac=1 / ref=3 / deblock=1:0:0 / analyse=0x3:0x133 / me=hex / subme=7 / psy=1 / psy_rd=1.00:0.00 / mixed_ref=1 / me_range=16 / chroma_me=1 / trellis=1 / 8x8dct=1 / cqm=0 / deadzone=21,11 / fast_pskip=1 / chroma_qp_offset=-2 / threads=6 / lookahead_threads=1 / sliced_threads=0 / nr=0 / decimate=1 / interlaced=0 / bluray_compat=0 / constrained_intra=0 / bframes=3 / b_pyramid=2 / b_adapt=1 / b_bias=0 / direct=1 / weightb=1 / open_gop=0 / weightp=2 / keyint=250 / keyint_min=25 / scenecut=40 / intra_refresh=0 / rc_lookahead=40 / rc=crf / mbtree=1 / crf=20.0 / qcomp=0.60 / qpmin=10 / qpmax=51 / qpstep=4 / ip_ratio=1.40 / aq=1:1.00

Ήχος
ID                                       : 2
Format                                   : AAC
Format/Info                              : Advanced Audio Codec
Format profile                           : LC
Codec ID                                 : 40
Duration                                 : 16mn 52s
Bit rate                                 : 96,0 Kbps
Maximum bit rate                         : 128 Kbps
Channel(s)                               : 2 κανάλια
Channel positions                        : Front: L R
Sampling rate                            : 44,1 KHz
Stream size                              : 11,6 MiB (4%)
Language                                 : unk
Thumbnails:



Επεισόδιο 29 (S03E01) - Mystery Girl (Part 1)


ΑΠΟΚΛΕΙΣΤΙΚΑ ΓΙΑ ΤΟ TEENSPIRIT!

Μοιραστείτε αυτή τη δημοσίευση στο:Excite BookmarksDiggRedditDel.icio.usGoogleLiveSlashdotNetscapeTechnoratiStumbleUponNewsvineFurlYahooSmarking

Δημοσίευση Την / Το Κυρ Ιουλ 31, 2016 4:04 am από DRAKE AND JOSH FAN!

thanks

avatar

Δημοσίευση Την / Το Πεμ Δεκ 29, 2016 4:33 pm από teliosmetonma

ty

Δημοσίευση Την / Το Σαβ Ιουν 17, 2017 7:42 am από TB87

ευχαριστω!

avatar

Δημοσίευση Την / Το Σαβ Ιουν 24, 2017 12:19 pm από Maria Mvrd

thanks!

Επισκόπηση προηγούμενης Θ.Ενότητας Επισκόπηση επόμενης Θ.Ενότητας Επιστροφή στην κορυφή Μήνυμα [Σελίδα 1 από 1]

Δικαιώματα σας στην κατηγορία αυτή
Δεν μπορείτε να απαντήσετε στα Θέματα αυτής της Δ.Συζήτησης