Teen Spirit

Ένα φόρουμ αποκλειστικά για νεανικές σειρές στα ελληνικά!


Μη Συνδεδεμενος Παρακαλώ συνδεθείτε ή εγγραφείτε

Nickelodeon Christmas Pack!

Μετάβαση στη σελίδα : 1, 2  Επόμενο

Επισκόπηση προηγούμενης Θ.Ενότητας Επισκόπηση επόμενης Θ.Ενότητας Πήγαινε κάτω Μήνυμα [Σελίδα 1 από 2]

avatar

Tsaklas


Admin
Admin
http://teenspirit.forumgreek.com

Το TeenSpirit σας εύχεται Καλές Γιορτές και σας προσφέρει ένα πλήθος απο γιορτινά επεισόδια και ταινίες των αγαπημένων μας νεανικών σειρών του Nickelodeon!!!

         

Προστέθηκε το Χριστουγεννιάτικο επεισόδιο Nicky, Ricky, Dicky & Dawn!

[Πρέπει να είστε εγγεγραμμένοι και συνδεδεμένοι για να δείτε αυτόν το σύνδεσμο.]

============================================================
iCarly: iChristmas
[Πρέπει να είστε εγγεγραμμένοι και συνδεδεμένοι για να δείτε αυτόν το σύνδεσμο.]
Όταν ο Σπένσερ καταστρέφει το Χριστουγεννιάτικο δέντρο, η Κάρλι εύχεται ο Σπένσερ να μην είχε γεννηθεί... Το αποτέλεσμα είναι αναπάντεχο όταν ένας άγγελος πραγματοποιεί την ευχή.
Χαρακτηριστικά:
General
Complete name                    : C:\Users\Tsaklas\Desktop\Νεανικές Σειρές Handbrake\Christmas Episodes\iCarly S02E09 iChristmas.mp4
Format                           : MPEG-4
Format profile                   : Base Media / Version 2
Codec ID                         : mp42
File size                        : 122 MiB
Duration                         : 22mn 29s
Overall bit rate                 : 760 Kbps
Encoded date                     : UTC 2014-11-27 17:45:06
Tagged date                      : UTC 2014-11-27 18:08:10
Writing application              : HandBrake 0.9.9 2013052900

Video
ID                               : 1
Format                           : AVC
Format/Info                      : Advanced Video Codec
Format profile                   : Main@L4.0
Format settings, CABAC           : Yes
Format settings, ReFrames        : 4 frames
Codec ID                         : avc1
Codec ID/Info                    : Advanced Video Coding
Duration                         : 22mn 29s
Bit rate mode                    : Variable
Bit rate                         : 596 Kbps
Width                            : 720 pixels
Height                           : 576 pixels
Display aspect ratio             : 16:9
Frame rate mode                  : Variable
Frame rate                       : 24.980 fps
Minimum frame rate               : 1.696 fps
Maximum frame rate               : 25.000 fps
Standard                         : PAL
Color space                      : YUV
Chroma subsampling               : 4:2:0
Bit depth                        : 8 bits
Scan type                        : Progressive
Bits/(Pixel*Frame)               : 0.057
Stream size                      : 95.8 MiB (78%)
Writing library                  : x264 core 130 r2273 b3065e6
Encoding settings                : cabac=1 / ref=1 / deblock=1:0:0 / analyse=0x1:0x111 / me=hex / subme=2 / psy=1 / psy_rd=1.00:0.00 / mixed_ref=0 / me_range=16 / chroma_me=1 / trellis=0 / 8x8dct=0 / cqm=0 / deadzone=21,11 / fast_pskip=1 / chroma_qp_offset=0 / threads=3 / lookahead_threads=1 / sliced_threads=0 / nr=0 / decimate=1 / interlaced=0 / bluray_compat=0 / constrained_intra=0 / bframes=3 / b_pyramid=2 / b_adapt=1 / b_bias=0 / direct=1 / weightb=1 / open_gop=0 / weightp=1 / keyint=250 / keyint_min=25 / scenecut=40 / intra_refresh=0 / rc_lookahead=10 / rc=crf / mbtree=1 / crf=26.0 / qcomp=0.60 / qpmin=0 / qpmax=69 / qpstep=4 / vbv_maxrate=20000 / vbv_bufsize=25000 / crf_max=0.0 / nal_hrd=none / ip_ratio=1.40 / aq=1:1.00
Encoded date                     : UTC 2014-11-27 17:45:06
Tagged date                      : UTC 2014-11-27 18:08:10
Color primaries                  : BT.601-6 525, BT.1358 525, BT.1700 NTSC, SMPTE 170M
Transfer characteristics         : BT.709-5, BT.1361
Matrix coefficients              : BT.601-6 525, BT.1358 525, BT.1700 NTSC, SMPTE 170M

Audio
ID                               : 2
Format                           : AAC
Format/Info                      : Advanced Audio Codec
Format profile                   : LC
Codec ID                         : 40
Duration                         : 22mn 27s
Bit rate mode                    : Variable
Bit rate                         : 160 Kbps
Maximum bit rate                 : 190 Kbps
Channel(s)                       : 2 channels
Channel positions                : Front: L R
Sampling rate                    : 48.0 KHz
Compression mode                 : Lossy
Stream size                      : 25.7 MiB (21%)
Language                         : Greek
Encoded date                     : UTC 2014-11-27 17:45:06
Tagged date                      : UTC 2014-11-27 18:08:10


============================================================
Big Time Christmas - by JCNick
[Πρέπει να είστε εγγεγραμμένοι και συνδεδεμένοι για να δείτε αυτόν το σύνδεσμο.]
Οι Big Time Rush ετοιμάζονται να επιστρέψουν στην πόλη τους, την Minnesota για τα Χριστούγεννα, όμως ο Griffin ζητά να ετοιμάσουν ένα Χριστουγεννιάτικο άλμπουμ με guest εμφανίσεις. Θα τα καταφέρουν;
Guest Stars: Miranda Cosgrove, Snoop Dog
Χαρακτηριστικά:
General
Complete name                    : G:\1 EPISODES\Big Time Rush\Season 2\S2E08-09 Big Time Christmas\BTR.S02E08-09FULL&HD.mp4
Format                           : MPEG-4
Format profile                   : Base Media
Codec ID                         : isom
File size                        : 325 MiB
Duration                         : 44mn 37s
Overall bit rate                 : 1 018 Kbps
Encoded date                     : UTC 2014-08-30 19:36:45
Tagged date                      : UTC 2014-08-30 19:36:45
Writing application              : FormatFactory : [Πρέπει να είστε εγγεγραμμένοι και συνδεδεμένοι για να δείτε αυτόν το σύνδεσμο.]

Video
ID                               : 1
Format                           : AVC
Format/Info                      : Advanced Video Codec
Format profile                   : High@L2.1
Format settings, CABAC           : No
Format settings, ReFrames        : 1 frame
Codec ID                         : avc1
Codec ID/Info                    : Advanced Video Coding
Duration                         : 44mn 37s
Bit rate mode                    : Variable
Bit rate                         : 900 Kbps
Maximum bit rate                 : 4 807 Kbps
Width                            : 1 024 pixels
Height                           : 576 pixels
Display aspect ratio             : 16:9
Frame rate mode                  : Constant
Frame rate                       : 23.976 fps
Color space                      : YUV
Chroma subsampling               : 4:2:0
Bit depth                        : 8 bits
Scan type                        : Progressive
Bits/(Pixel*Frame)               : 0.064
Stream size                      : 284 MiB (87%)
Writing library                  : x264 core 116 r2019 9cc407d
Encoding settings                : cabac=0 / ref=1 / deblock=1:0:0 / analyse=0x3:0x113 / me=hex / subme=7 / psy=1 / psy_rd=1.00:0.00 / mixed_ref=0 / me_range=16 / chroma_me=1 / trellis=1 / 8x8dct=1 / cqm=0 / deadzone=21,11 / fast_pskip=1 / chroma_qp_offset=-2 / threads=3 / sliced_threads=0 / nr=0 / decimate=1 / interlaced=0 / bluray_compat=0 / constrained_intra=0 / bframes=0 / weightp=2 / keyint=250 / keyint_min=23 / scenecut=40 / intra_refresh=0 / rc_lookahead=40 / rc=abr / mbtree=1 / bitrate=900 / ratetol=1.0 / qcomp=0.60 / qpmin=0 / qpmax=69 / qpstep=4 / ip_ratio=1.40 / aq=1:1.00
Encoded date                     : UTC 2014-08-30 19:36:45
Tagged date                      : UTC 2014-08-30 19:40:24


============================================================
Victorious: A Christmas Tori
[Πρέπει να είστε εγγεγραμμένοι και συνδεδεμένοι για να δείτε αυτόν το σύνδεσμο.]
Καθένας από την παρέα του Victorious αναλαμβάνει τον ρόλο του "Μυστικού Άγιου Βασίλη" και πρέπει να πάρει στον άλλον ένα ικανοποιητικό δώρο.
Χαρακτηριστικά:
General
Complete name                    : H:\1 EPISODES\Victorious\Season 3\S3E01 A Christmas Tori\Victorious S3E01 A Christmas Tori [Nickelodeon Greece].avi
Format                           : AVI
Format/Info                      : Audio Video Interleave
File size                        : 194 MiB
Duration                         : 22mn 32s
Overall bit rate                 : 1 204 Kbps
Writing application              : Lavf54.62.100

Video
ID                               : 0
Format                           : MPEG-4 Visual
Codec ID                         : MP43
Codec ID/Info                    : Microsoft MPEG-4 v3 (pre-standard)
Codec ID/Hint                    : Microsoft
Duration                         : 22mn 32s
Bit rate                         : 1 000 Kbps
Width                            : 640 pixels
Height                           : 480 pixels
Display aspect ratio             : 4:3
Frame rate                       : 25.000 fps
Compression mode                 : Lossy
Bits/(Pixel*Frame)               : 0.130
Stream size                      : 161 MiB (83%)

Audio
ID                               : 1
Format                           : MPEG Audio
Format version                   : Version 1
Format profile                   : Layer 3
Mode                             : Joint stereo
Codec ID                         : 55
Codec ID/Hint                    : MP3
Duration                         : 22mn 32s
Bit rate mode                    : Constant
Bit rate                         : 192 Kbps
Channel(s)                       : 2 channels
Sampling rate                    : 44.1 KHz
Compression mode                 : Lossy
Stream size                      : 31.0 MiB (16%)
Alignment                        : Aligned on interleaves
Interleave, duration             : 26 ms (0.65 video frame)


============================================================
The Troop: The Good, the Bad & the Ickie Doll
[Πρέπει να είστε εγγεγραμμένοι και συνδεδεμένοι για να δείτε αυτόν το σύνδεσμο.]
Οι νέες κούκλες που κάνουν πάταγο είναι στην πραγματικότητα τέρατα! Θα καταφέρουν ο Τζέικ, η Χέιλι και ο Φήλιξ να τις μαζέψουν από τα δώρα πριν το Χριστουγεννιάτικο πρωινό;
Χαρακτηριστικά:
General
Complete name                    : C:\Users\Tsaklas\Desktop\Νεανικές Σειρές Handbrake\Christmas Episodes\The Troop S01e11hd-1.mp4
Format                           : MPEG-4
Format profile                   : Base Media / Version 2
Codec ID                         : mp42
File size                        : 195 MiB
Duration                         : 23mn 36s
Overall bit rate                 : 1 153 Kbps
Encoded date                     : UTC 2014-11-15 12:14:15
Tagged date                      : UTC 2014-11-15 12:31:15
Writing application              : HandBrake 0.9.9 2013052900

Video
ID                               : 1
Format                           : AVC
Format/Info                      : Advanced Video Codec
Format profile                   : Main@L4.0
Format settings, CABAC           : Yes
Format settings, ReFrames        : 4 frames
Codec ID                         : avc1
Codec ID/Info                    : Advanced Video Coding
Duration                         : 23mn 36s
Bit rate mode                    : Variable
Bit rate                         : 989 Kbps
Width                            : 702 pixels
Height                           : 574 pixels
Display aspect ratio             : 16:9
Frame rate mode                  : Variable
Frame rate                       : 25.000 fps
Minimum frame rate               : 12.500 fps
Maximum frame rate               : 25.000 fps
Color space                      : YUV
Chroma subsampling               : 4:2:0
Bit depth                        : 8 bits
Scan type                        : Progressive
Bits/(Pixel*Frame)               : 0.098
Stream size                      : 167 MiB (86%)
Writing library                  : x264 core 130 r2273 b3065e6
Encoding settings                : cabac=1 / ref=1 / deblock=1:0:0 / analyse=0x1:0x111 / me=hex / subme=2 / psy=1 / psy_rd=1.00:0.00 / mixed_ref=0 / me_range=16 / chroma_me=1 / trellis=0 / 8x8dct=0 / cqm=0 / deadzone=21,11 / fast_pskip=1 / chroma_qp_offset=0 / threads=3 / lookahead_threads=1 / sliced_threads=0 / nr=0 / decimate=1 / interlaced=0 / bluray_compat=0 / constrained_intra=0 / bframes=3 / b_pyramid=2 / b_adapt=1 / b_bias=0 / direct=1 / weightb=1 / open_gop=0 / weightp=1 / keyint=250 / keyint_min=25 / scenecut=40 / intra_refresh=0 / rc_lookahead=10 / rc=crf / mbtree=1 / crf=25.0 / qcomp=0.60 / qpmin=0 / qpmax=69 / qpstep=4 / vbv_maxrate=20000 / vbv_bufsize=25000 / crf_max=0.0 / nal_hrd=none / ip_ratio=1.40 / aq=1:1.00
Encoded date                     : UTC 2014-11-15 12:14:15
Tagged date                      : UTC 2014-11-15 12:31:12
Color primaries                  : BT.470-6 System B, BT.470-6 System G, BT.601-6 625, BT.1358 625, BT.1700 625 PAL, BT.1700 625 SECAM
Transfer characteristics         : BT.709-5, BT.1361
Matrix coefficients              : BT.601-6 525, BT.1358 525, BT.1700 NTSC, SMPTE 170M

Audio
ID                               : 2
Format                           : AAC
Format/Info                      : Advanced Audio Codec
Format profile                   : LC
Codec ID                         : 40
Duration                         : 23mn 36s
Bit rate mode                    : Variable
Bit rate                         : 160 Kbps
Maximum bit rate                 : 201 Kbps
Channel(s)                       : 2 channels
Channel positions                : Front: L R
Sampling rate                    : 48.0 KHz
Compression mode                 : Lossy
Stream size                      : 27.0 MiB (14%)
Language                         : Greek
Encoded date                     : UTC 2014-11-15 12:14:15
Tagged date                      : UTC 2014-11-15 12:31:12


============================================================
Bucket & Skinner's Epic Christmas
[Πρέπει να είστε εγγεγραμμένοι και συνδεδεμένοι για να δείτε αυτόν το σύνδεσμο.]
Ο Μπάκετ είναι μίζερος επειδή κάνουν Χριστούγεννα με ζέστη, έτσι ζει μια παραλλαγή της γνωστής "Χριστουγεννιάτικης Ιστορίας" με τα 3 φαντάσματα ώστε να μάθει να είναι ευγνώμων.
Xαρακτηριστικά:
General
Complete name                    : C:\Users\Tsaklas\Desktop\Νεανικές Σειρές Handbrake\Christmas Episodes\Bucket & Skinner S01E19 Epic Christmas.mp4
Format                           : MPEG-4
Format profile                   : Base Media / Version 2
Codec ID                         : mp42
File size                        : 136 MiB
Duration                         : 22mn 32s
Overall bit rate                 : 843 Kbps
Encoded date                     : UTC 2014-11-27 17:29:42
Tagged date                      : UTC 2014-11-27 17:45:00
Writing application              : HandBrake 0.9.9 2013052900

Video
ID                               : 1
Format                           : AVC
Format/Info                      : Advanced Video Codec
Format profile                   : Main@L4.0
Format settings, CABAC           : Yes
Format settings, ReFrames        : 4 frames
Codec ID                         : avc1
Codec ID/Info                    : Advanced Video Coding
Duration                         : 22mn 32s
Bit rate mode                    : Variable
Bit rate                         : 679 Kbps
Width                            : 720 pixels
Height                           : 396 pixels
Display aspect ratio             : 16:9
Frame rate mode                  : Constant
Frame rate                       : 25.000 fps
Color space                      : YUV
Chroma subsampling               : 4:2:0
Bit depth                        : 8 bits
Scan type                        : Progressive
Bits/(Pixel*Frame)               : 0.095
Stream size                      : 109 MiB (81%)
Writing library                  : x264 core 130 r2273 b3065e6
Encoding settings                : cabac=1 / ref=1 / deblock=1:0:0 / analyse=0x1:0x111 / me=hex / subme=2 / psy=1 / psy_rd=1.00:0.00 / mixed_ref=0 / me_range=16 / chroma_me=1 / trellis=0 / 8x8dct=0 / cqm=0 / deadzone=21,11 / fast_pskip=1 / chroma_qp_offset=0 / threads=3 / lookahead_threads=1 / sliced_threads=0 / nr=0 / decimate=1 / interlaced=0 / bluray_compat=0 / constrained_intra=0 / bframes=3 / b_pyramid=2 / b_adapt=1 / b_bias=0 / direct=1 / weightb=1 / open_gop=0 / weightp=1 / keyint=250 / keyint_min=25 / scenecut=40 / intra_refresh=0 / rc_lookahead=10 / rc=crf / mbtree=1 / crf=26.0 / qcomp=0.60 / qpmin=0 / qpmax=69 / qpstep=4 / vbv_maxrate=20000 / vbv_bufsize=25000 / crf_max=0.0 / nal_hrd=none / ip_ratio=1.40 / aq=1:1.00
Encoded date                     : UTC 2014-11-27 17:29:42
Tagged date                      : UTC 2014-11-27 17:45:00
Color primaries                  : BT.470-6 System B, BT.470-6 System G, BT.601-6 625, BT.1358 625, BT.1700 625 PAL, BT.1700 625 SECAM
Transfer characteristics         : BT.709-5, BT.1361
Matrix coefficients              : BT.601-6 525, BT.1358 525, BT.1700 NTSC, SMPTE 170M

Audio
ID                               : 2
Format                           : AAC
Format/Info                      : Advanced Audio Codec
Format profile                   : LC
Codec ID                         : 40
Duration                         : 22mn 32s
Bit rate mode                    : Variable
Bit rate                         : 160 Kbps
Maximum bit rate                 : 193 Kbps
Channel(s)                       : 2 channels
Channel positions                : Front: L R
Sampling rate                    : 48.0 KHz
Compression mode                 : Lossy
Stream size                      : 25.8 MiB (19%)
Encoded date                     : UTC 2014-11-27 17:29:42
Tagged date                      : UTC 2014-11-27 17:45:00


============================================================
True Jackson: True Parade - by foojam2002
[Πρέπει να είστε εγγεγραμμένοι και συνδεδεμένοι για να δείτε αυτόν το σύνδεσμο.]
Η Τρου αναλαμβάνει να βρει μια ιδέα για να προωθήσει την Mad Style, και σκέφτεται να λανσάρει ένα παλτό για την Χριστουγεννιάτικη παρέλαση, η οποία πάει πολύ στραβά...
Xαρακτηριστικά:
General
Complete name                    : G:\1 EPISODES\True Jackson VP\Season 2\True Jackson S02E04 True Parade.wmv
Format                           : Windows Media
File size                        : 144 MiB
Duration                         : 22mn 21s
Overall bit rate mode            : Constant
Overall bit rate                 : 900 Kbps
Maximum Overall bit rate         : 907 Kbps
Encoded date                     : UTC 2014-06-07 09:33:52.718
Application                      : Windows Movie Maker 2.1.4028.0

Video
ID                               : 2
Format                           : VC-1
Format profile                   : MP@ML
Codec ID                         : WMV3
Codec ID/Info                    : Windows Media Video 9
Codec ID/Hint                    : WMV3
Description of the codec         : Windows Media Video 9
Duration                         : 22mn 21s
Bit rate mode                    : Constant
Bit rate                         : 768 Kbps
Width                            : 720 pixels
Height                           : 576 pixels
Display aspect ratio             : 5:4
Frame rate                       : 25.000 fps
Standard                         : PAL
Bit depth                        : 8 bits
Scan type                        : Progressive
Compression mode                 : Lossy
Bits/(Pixel*Frame)               : 0.074
Stream size                      : 123 MiB (85%)
Language                         : Greek

Audio
ID                               : 1
Format                           : WMA
Format version                   : Version 2
Codec ID                         : 161
Codec ID/Info                    : Windows Media Audio
Description of the codec         : Windows Media Audio 9.2 - 128 kbps, 44 kHz, stereo (A/V) 1-pass CBR
Duration                         : 22mn 21s
Bit rate mode                    : Constant
Bit rate                         : 128 Kbps
Channel(s)                       : 2 channels
Sampling rate                    : 44.1 KHz
Bit depth                        : 16 bits
Stream size                      : 20.5 MiB (14%)
Language                         : Greek

=====================================================
A Fairly OddChristmas - by JCNick
[Πρέπει να είστε εγγεγραμμένοι και συνδεδεμένοι για να δείτε αυτόν το σύνδεσμο.]
Υπόθεση: O Tίμι αναλαμβάνει τον ρόλο του Άγιου Βασίλη!
Χαρακτηριστικά:
General
Complete name                    : G:\1 EPISODES\A Fairly OddChristmas\A Fairly Odd Chrstmas(FULL HD GR).mp4
Format                           : MPEG-4
Format profile                   : Base Media
Codec ID                         : isom
File size                        : 277 MiB
Duration                         : 1h 5mn
Overall bit rate                 : 593 Kbps
Movie name                       : Watch AFairly Odd Chrstmas(FULL&HD&GR) mp4
Writing application              : Lavf55.13.102
widt                             : (Binary)
heig                             : (Binary)
urls                             : [Πρέπει να είστε εγγεγραμμένοι και συνδεδεμένοι για να δείτε αυτόν το σύνδεσμο.]
urlo                             : [Πρέπει να είστε εγγεγραμμένοι και συνδεδεμένοι για να δείτε αυτόν το σύνδεσμο.]

Video
ID                               : 1
Format                           : AVC
Format/Info                      : Advanced Video Codec
Format profile                   : High@L2.1
Format settings, CABAC           : Yes
Format settings, ReFrames        : 4 frames
Format settings, GOP             : M=4, N=50
Codec ID                         : avc1
Codec ID/Info                    : Advanced Video Coding
Duration                         : 1h 5mn
Duration_LastFrame               : -10ms
Bit rate mode                    : Variable
Bit rate                         : 491 Kbps
Width                            : 576 pixels
Height                           : 324 pixels
Display aspect ratio             : 16:9
Frame rate mode                  : Constant
Frame rate                       : 25.000 fps
Color space                      : YUV
Chroma subsampling               : 4:2:0
Bit depth                        : 8 bits
Scan type                        : Progressive
Bits/(Pixel*Frame)               : 0.105
Stream size                      : 229 MiB (83%)
Writing library                  : x264 core 135 r2345 f0c1c53
Encoding settings                : cabac=1 / ref=1 / deblock=1:0:0 / analyse=0x3:0x113 / me=hex / subme=2 / psy=1 / psy_rd=1.00:0.00 / mixed_ref=0 / me_range=16 / chroma_me=1 / trellis=0 / 8x8dct=1 / cqm=0 / deadzone=21,11 / fast_pskip=1 / chroma_qp_offset=0 / threads=36 / lookahead_threads=2 / sliced_threads=0 / nr=0 / decimate=1 / interlaced=0 / bluray_compat=0 / constrained_intra=0 / bframes=3 / b_pyramid=2 / b_adapt=1 / b_bias=0 / direct=1 / weightb=1 / open_gop=0 / weightp=1 / keyint=50 / keyint_min=5 / scenecut=40 / intra_refresh=0 / rc_lookahead=10 / rc=crf / mbtree=1 / crf=25.0 / qcomp=0.60 / qpmin=0 / qpmax=69 / qpstep=4 / ip_ratio=1.40 / aq=1:1.00

Audio
ID                               : 2
Format                           : AAC
Format/Info                      : Advanced Audio Codec
Format profile                   : LC
Codec ID                         : 40
Duration                         : 1h 5mn
Bit rate mode                    : Constant
Bit rate                         : 96.0 Kbps
Channel(s)                       : 2 channels
Channel positions                : Front: L R
Sampling rate                    : 44.1 KHz
Compression mode                 : Lossy
Stream size                      : 44.8 MiB (16%)


============================================================
Merry Christmas, Drake & Josh! - Subs by JasonC - Ακυκλοφόρητη στην Ελλάδα!
[Πρέπει να είστε εγγεγραμμένοι και συνδεδεμένοι για να δείτε αυτόν το σύνδεσμο.]
Ο Ντρέικ κι ο Τζος κατηγορούνται από λάθος για ληστεία και για να μην καταλήξουν στην φυλακή, πρέπει να προσφέρουν σε μια οικογένεια τα καλύτερα Χριστούγεννα!
Χαρακτηριστικά:
General
Complete name                    : H:\1 EPISODES\Drake & Josh\Merry Christmas, Drake & Josh\Merry Christmas, Drake & Josh.flv
Format                           : Flash Video
File size                        : 317 MiB
Duration                         : 1h 27mn
Overall bit rate                 : 503 Kbps
Tagging application              : Yet Another Metadata Injector for FLV - Version 1.9

Video
Format                           : AVC
Format/Info                      : Advanced Video Codec
Format profile                   : High@L2.1
Format settings, CABAC           : Yes
Format settings, ReFrames        : 4 frames
Codec ID                         : 7
Duration                         : 1h 27mn
Bit rate                         : 400 Kbps
Width                            : 512 pixels
Height                           : 320 pixels
Display aspect ratio             : 1.600
Frame rate mode                  : Constant
Frame rate                       : 23.976 fps
Color space                      : YUV
Chroma subsampling               : 4:2:0
Bit depth                        : 8 bits
Scan type                        : Progressive
Bits/(Pixel*Frame)               : 0.102
Stream size                      : 252 MiB (80%)
Writing library                  : x264 core 125 r2200 999b753
Encoding settings                : cabac=1 / ref=2 / deblock=1:0:0 / analyse=0x3:0x113 / me=hex / subme=6 / psy=1 / psy_rd=1.00:0.00 / mixed_ref=1 / me_range=16 / chroma_me=1 / trellis=1 / 8x8dct=1 / cqm=0 / deadzone=21,11 / fast_pskip=1 / chroma_qp_offset=-2 / threads=24 / lookahead_threads=4 / sliced_threads=0 / nr=0 / decimate=1 / interlaced=0 / bluray_compat=0 / constrained_intra=0 / bframes=3 / b_pyramid=2 / b_adapt=1 / b_bias=0 / direct=1 / weightb=1 / open_gop=0 / weightp=1 / keyint=250 / keyint_min=23 / scenecut=40 / intra_refresh=0 / rc_lookahead=30 / rc=2pass / mbtree=1 / bitrate=400 / ratetol=1.0 / qcomp=0.60 / qpmin=0 / qpmax=69 / qpstep=4 / cplxblur=20.0 / qblur=0.5 / vbv_maxrate=400 / vbv_bufsize=1000 / nal_hrd=none / ip_ratio=1.40 / aq=1:1.00

Audio
Format                           : AAC
Format/Info                      : Advanced Audio Codec
Format profile                   : LC
Codec ID                         : 10
Duration                         : 1h 27mn
Bit rate                         : 94.4 Kbps
Channel(s)                       : 2 channels
Channel positions                : Front: L R
Sampling rate                    : 44.1 KHz
Compression mode                 : Lossy
Stream size                      : 63.2 MiB (20%)


============================================================
Santa Hunters
[Πρέπει να είστε εγγεγραμμένοι και συνδεδεμένοι για να δείτε αυτόν το σύνδεσμο.]
Υπόθεση: Tέσσερα παιδιά κυνηγούν τον Άγιο Βασίλη!

Xαρακτηριστικά:
General
Complete name                    : C:\Users\Tsaklas\Desktop\28-12-2014\Santa Hunters.mp4
Format                           : MPEG-4
Format profile                   : Base Media / Version 2
Codec ID                         : mp42
File size                        : 698 MiB
Duration                         : 1h 5mn
Overall bit rate                 : 1 490 Kbps
Encoded date                     : UTC 2014-12-28 19:11:41
Tagged date                      : UTC 2014-12-28 20:20:02
Writing application              : HandBrake 0.9.9 2013052900

Video
ID                               : 1
Format                           : AVC
Format/Info                      : Advanced Video Codec
Format profile                   : Main@L4.0
Format settings, CABAC           : Yes
Format settings, ReFrames        : 4 frames
Codec ID                         : avc1
Codec ID/Info                    : Advanced Video Coding
Duration                         : 1h 5mn
Bit rate mode                    : Variable
Bit rate                         : 1 326 Kbps
Width                            : 720 pixels
Height                           : 576 pixels
Display aspect ratio             : 16:9
Original display aspect ratio    : 16:9
Frame rate mode                  : Variable
Frame rate                       : 25.000 fps
Minimum frame rate               : 8.333 fps
Maximum frame rate               : 25.000 fps
Standard                         : PAL
Color space                      : YUV
Chroma subsampling               : 4:2:0
Bit depth                        : 8 bits
Scan type                        : Progressive
Bits/(Pixel*Frame)               : 0.128
Stream size                      : 621 MiB (89%)
Writing library                  : x264 core 130 r2273 b3065e6
Encoding settings                : cabac=1 / ref=1 / deblock=1:0:0 / analyse=0x1:0x111 / me=hex / subme=2 / psy=1 / psy_rd=1.00:0.00 / mixed_ref=0 / me_range=16 / chroma_me=1 / trellis=0 / 8x8dct=0 / cqm=0 / deadzone=21,11 / fast_pskip=1 / chroma_qp_offset=0 / threads=3 / lookahead_threads=1 / sliced_threads=0 / nr=0 / decimate=1 / interlaced=0 / bluray_compat=0 / constrained_intra=0 / bframes=3 / b_pyramid=2 / b_adapt=1 / b_bias=0 / direct=1 / weightb=1 / open_gop=0 / weightp=1 / keyint=250 / keyint_min=25 / scenecut=40 / intra_refresh=0 / rc_lookahead=10 / rc=crf / mbtree=1 / crf=23.0 / qcomp=0.60 / qpmin=0 / qpmax=69 / qpstep=4 / vbv_maxrate=20000 / vbv_bufsize=25000 / crf_max=0.0 / nal_hrd=none / ip_ratio=1.40 / aq=1:1.00
Encoded date                     : UTC 2014-12-28 19:11:41
Tagged date                      : UTC 2014-12-28 20:20:02
Color primaries                  : BT.470-6 System B, BT.470-6 System G, BT.601-6 625, BT.1358 625, BT.1700 625 PAL, BT.1700 625 SECAM
Transfer characteristics         : BT.709-5, BT.1361
Matrix coefficients              : BT.601-6 525, BT.1358 525, BT.1700 NTSC, SMPTE 170M

Audio
ID                               : 2
Format                           : AAC
Format/Info                      : Advanced Audio Codec
Format profile                   : LC
Codec ID                         : 40
Duration                         : 1h 5mn
Bit rate mode                    : Variable
Bit rate                         : 160 Kbps
Maximum bit rate                 : 202 Kbps
Channel(s)                       : 2 channels
Channel positions                : Front: L R
Sampling rate                    : 48.0 KHz
Compression mode                 : Lossy
Stream size                      : 74.9 MiB (11%)
Language                         : Greek
Encoded date                     : UTC 2014-12-28 19:11:41
Tagged date                      : UTC 2014-12-28 20:20:02


============================================================
The Thundermans - Winter Thunderland
-
Nέο!!!
[Πρέπει να είστε εγγεγραμμένοι και συνδεδεμένοι για να δείτε αυτόν το σύνδεσμο.]
Ο Μαξ θέλει να καταστρέψει τα Χριστούγεννα για όλους, όμως μια επίσκεψη από το Πνεύμα των Χριστουγέννων θα τον ταράξει...

Xαρακτηριστικά:
Γενικά
Πλήρες όνομα                             : C:\Users\Παναγιώτης\Desktop\The Thundermans S02E14 Winter Thunderland.mp4
Μορφοποίηση                              : MPEG-4
Format_Profile                           : Base Media / Version 2
CodecID                                  : mp42
Μέγεθος αρχείου                          : 356 MiB
Duration/String                          : 22mn 38s
Συνολικό BitRate                         : 2 196 Kbps
Ημερομηνία κωδικοποίησης                 : UTC 2036-02-06 06:28:16
Tagged date                              : UTC 2036-02-06 06:28:16
Εφαρμογή εγγραφής                        : HandBrake 0.10.2 2015060900

Video
ID                                       : 1
Μορφοποίηση                              : AVC
Μορφοποίηση/                             : Advanced Video Codec
Format_Profile                           : Main@L4
Format_Settings_CABAC/String             : Ναι
Format_Settings_RefFrames/String         : 4 frame
CodecID                                  : avc1
/                                        : Advanced Video Coding
Duration/String                          : 22mn 38s
Ρυθμός μετάδοσης δεδομένων               : 1 872 Kbps
Πλάτος                                   : 1 038 εικονοστοιχεία
Ύψος                                     : 576 εικονοστοιχεία
Λόγος εικόνας                            : 16:9
Ρυθμός ανανέωσης πλαισίου                : 29,970 fps
ColorSpace                               : YUV
ChromaSubsampling                        : 4:2:0
BitDepth/String                          : 8 bits
ScanType/String                          : Συνεχής σάρωση
Bits/(Εικονοστοιχείο*Πλαίσιο)            : 0.104
StreamSize/String                        : 303 MiB (85%)
Βιβλιοθήκη κωδικοποιητή                  : x264 core 142 r2479 dd79a61
Ρυθμίσεις κωδικοποιητή                   : cabac=1 / ref=1 / deblock=1:0:0 / analyse=0x1:0x111 / me=hex / subme=2 / psy=1 / psy_rd=1.00:0.00 / mixed_ref=0 / me_range=16 / chroma_me=1 / trellis=0 / 8x8dct=0 / cqm=0 / deadzone=21,11 / fast_pskip=1 / chroma_qp_offset=0 / threads=6 / lookahead_threads=2 / sliced_threads=0 / nr=0 / decimate=1 / interlaced=0 / bluray_compat=0 / constrained_intra=0 / bframes=3 / b_pyramid=2 / b_adapt=1 / b_bias=0 / direct=1 / weightb=1 / open_gop=0 / weightp=1 / keyint=300 / keyint_min=30 / scenecut=40 / intra_refresh=0 / rc_lookahead=10 / rc=crf / mbtree=1 / crf=19.0 / qcomp=0.60 / qpmin=0 / qpmax=69 / qpstep=4 / vbv_maxrate=20000 / vbv_bufsize=25000 / crf_max=0.0 / nal_hrd=none / filler=0 / ip_ratio=1.40 / aq=1:1.00
Ημερομηνία κωδικοποίησης                 : UTC 2036-02-06 06:28:16
Tagged date                              : UTC 2036-02-06 06:28:16
colour_range                             : Limited
colour_primaries                         : BT.601 PAL
transfer_characteristics                 : BT.709
matrix_coefficients                      : BT.601

Ήχος
ID                                       : 2
Μορφοποίηση                              : AAC
Μορφοποίηση/                             : Advanced Audio Codec
Format_Profile                           : LC
CodecID                                  : 40
Duration/String                          : 22mn 38s
Ρυθμός μετάδοσης δεδομένων               : 317 Kbps
Κανάλι(α)                                : 2 κανάλια
Θέσεις καναλιών                          : Front: L R
Συχνότητα δειγματοληψίας                 : 48,0 KHz
StreamSize/String                        : 51,4 MiB (14%)
Τίτλος                                   : Stereo / Stereo
Γλώσσα                                   : English
Ημερομηνία κωδικοποίησης                 : UTC 2036-02-06 06:28:16
Tagged date                              : UTC 2036-02-06 06:28:16



============================================================
Nicky, Ricky, Dicky & Dawn - Santa's Little Harpers
-
Nέο!!!

[Πρέπει να είστε εγγεγραμμένοι και συνδεδεμένοι για να δείτε αυτόν το σύνδεσμο.]

Tα τετράδυμα αναγκάζονται να δουλέψουν στο μαγαζί των γονιών τους τα Χριστούγεννα, επειδή κρυφοκοίταξαν τα δώρα. Παράλληλα, η Αν και ο Τομ αλλάζουν θέσεις ως Άη-Βασίλης και Κα Βασίλη για να δουν ποιος έχει την πιο δύσκολη δουλειά!

Πληροφορίες αρχείων:
Γενικά
Πλήρες όνομα                             : C:\Users\Παναγιώτης\Desktop\Nicky, Ricky, Dicky & Dawn S01E12 Santa's Little Harpers.mp4
Μορφοποίηση                              : MPEG-4
Format_Profile                           : Base Media / Version 2
CodecID                                  : mp42
Μέγεθος αρχείου                          : 200 MiB
Duration/String                          : 22mn 29s
Συνολικό BitRate                         : 1 244 Kbps
Ημερομηνία κωδικοποίησης                 : UTC 2036-02-06 06:28:16
Tagged date                              : UTC 2036-02-06 06:28:16
Εφαρμογή εγγραφής                        : HandBrake 0.10.2 2015060900

Video
ID                                       : 1
Μορφοποίηση                              : AVC
Μορφοποίηση/                             : Advanced Video Codec
Format_Profile                           : Main@L4
Format_Settings_CABAC/String             : Ναι
Format_Settings_RefFrames/String         : 4 frame
CodecID                                  : avc1
/                                        : Advanced Video Coding
Duration/String                          : 22mn 29s
Ρυθμός μετάδοσης δεδομένων               : 1 100 Kbps
Πλάτος                                   : 720 εικονοστοιχεία
Ύψος                                     : 576 εικονοστοιχεία
Λόγος εικόνας                            : 16:9
Ρυθμός ανανέωσης πλαισίου                : 25,000 fps
Στάνταρ                                  : PAL
ColorSpace                               : YUV
ChromaSubsampling                        : 4:2:0
BitDepth/String                          : 8 bits
ScanType/String                          : Συνεχής σάρωση
Bits/(Εικονοστοιχείο*Πλαίσιο)            : 0.106
StreamSize/String                        : 173 MiB (87%)
Βιβλιοθήκη κωδικοποιητή                  : x264 core 142 r2479 dd79a61
Ρυθμίσεις κωδικοποιητή                   : cabac=1 / ref=1 / deblock=1:0:0 / analyse=0x1:0x111 / me=hex / subme=2 / psy=1 / psy_rd=1.00:0.00 / mixed_ref=0 / me_range=16 / chroma_me=1 / trellis=0 / 8x8dct=0 / cqm=0 / deadzone=21,11 / fast_pskip=1 / chroma_qp_offset=0 / threads=6 / lookahead_threads=2 / sliced_threads=0 / nr=0 / decimate=1 / interlaced=0 / bluray_compat=0 / constrained_intra=0 / bframes=3 / b_pyramid=2 / b_adapt=1 / b_bias=0 / direct=1 / weightb=1 / open_gop=0 / weightp=1 / keyint=250 / keyint_min=25 / scenecut=40 / intra_refresh=0 / rc_lookahead=10 / rc=abr / mbtree=1 / bitrate=1100 / ratetol=1.0 / qcomp=0.60 / qpmin=0 / qpmax=69 / qpstep=4 / vbv_maxrate=20000 / vbv_bufsize=25000 / nal_hrd=none / filler=0 / ip_ratio=1.40 / aq=1:1.00
Ημερομηνία κωδικοποίησης                 : UTC 2036-02-06 06:28:16
Tagged date                              : UTC 2036-02-06 06:28:16
colour_range                             : Limited
colour_primaries                         : BT.601 PAL
transfer_characteristics                 : BT.709
matrix_coefficients                      : BT.601

Ήχος
ID                                       : 2
Μορφοποίηση                              : AAC
Μορφοποίηση/                             : Advanced Audio Codec
Format_Profile                           : LC
CodecID                                  : 40
Duration/String                          : 22mn 29s
Ρυθμός μετάδοσης δεδομένων               : 160 Kbps
Κανάλι(α)                                : 2 κανάλια
Θέσεις καναλιών                          : Front: L R
Συχνότητα δειγματοληψίας                 : 48,0 KHz
StreamSize/String                        : 25,8 MiB (13%)
Τίτλος                                   : Stereo / Stereo
Γλώσσα                                   : Greek
Ημερομηνία κωδικοποίησης                 : UTC 2036-02-06 06:28:16
Tagged date                              : UTC 2036-02-06 06:28:16
Thumbnails:
[Πρέπει να είστε εγγεγραμμένοι και συνδεδεμένοι για να δείτε αυτόν το σύνδεσμο.]



============================================================

Καλές γιορτές σε όλους!



Έχει επεξεργασθεί από τον/την Tsaklas στις Τρι Φεβ 21, 2017 1:57 pm, 26 φορές συνολικά

Μοιραστείτε αυτή τη δημοσίευση στο:Excite BookmarksDiggRedditDel.icio.usGoogleLiveSlashdotNetscapeTechnoratiStumbleUponNewsvineFurlYahooSmarking

avatar

Δημοσίευση Την / Το Τρι Δεκ 23, 2014 1:40 pm από Alex

Τέλεια! Very Happy

avatar

Δημοσίευση Την / Το Τρι Δεκ 23, 2014 2:50 pm από lef0

ευχαριστωωω

avatar

Δημοσίευση Την / Το Τρι Δεκ 23, 2014 6:27 pm από redlegend

Ευχαριστώ πολύ

Δημοσίευση Την / Το Πεμ Δεκ 25, 2014 8:39 am από TB87

ευχαριστω

avatar

Δημοσίευση Την / Το Παρ Δεκ 26, 2014 10:54 am από Tsaklas

Προστέθηκε η ταινία "Merry Christmas, Drake & Josh"!

avatar

Δημοσίευση Την / Το Δευ Δεκ 29, 2014 9:07 pm από savvas

ευχαριστω

Δημοσίευση Την / Το Δευ Δεκ 29, 2014 9:09 pm από ap-99

thanks

avatar

Δημοσίευση Την / Το Τρι Δεκ 30, 2014 9:19 am από Tsaklas

Προστέθηκε η ολοκαίνουργια ταινία Santa Hunters!

Δημοσίευση Την / Το Δευ Μαρ 02, 2015 5:57 pm από panagiotis94

Δημοσίευση Την / Το Πεμ Απρ 02, 2015 6:21 am από ZaneX

Ευχαριστώ!

avatar

Δημοσίευση Την / Το Δευ Ιουν 01, 2015 12:15 pm από LazarosNickelodeon

Δημοσίευση Την / Το Παρ Αυγ 28, 2015 7:11 pm από DRAKE AND JOSH FAN!

[Πρέπει να είστε εγγεγραμμένοι και συνδεδεμένοι για να δείτε αυτόν το σύνδεσμο.]

avatar

Δημοσίευση Την / Το Σαβ Δεκ 12, 2015 5:27 pm από Tsaklas

Προστέθηκε το επεισόδιο των Thundermans - Winter Thunderland!

avatar

Δημοσίευση Την / Το Κυρ Δεκ 13, 2015 11:42 pm από Kim Possible

avatar

Δημοσίευση Την / Το Κυρ Δεκ 27, 2015 10:37 am από Tsaklas

Προστέθηκε το επεισόδιο του Nicky, Ricky, Dicky & Dawn - Santa's Little Harpers!

avatar

Δημοσίευση Την / Το Τρι Μαρ 29, 2016 4:16 pm από Jimis Wolf

Thnks

avatar

Δημοσίευση Την / Το Κυρ Οκτ 23, 2016 7:26 pm από Jimis10

Thnks

avatar

Δημοσίευση Την / Το Τετ Νοε 02, 2016 11:13 am από BTR_Kendall

Ευχαριστούμε πολύ!

avatar

Δημοσίευση Την / Το Τετ Νοε 02, 2016 1:13 pm από apollonara

Ευχαριστώ

avatar

Δημοσίευση Την / Το Τετ Νοε 02, 2016 6:18 pm από i.tzer

Tsaklas έγραψε:
Το TeenSpirit σας εύχεται Καλές Γιορτές και σας προσφέρει ένα πλήθος απο γιορτινά επεισόδια και ταινίες των αγαπημένων μας νεανικών σειρών της Disney!

         

Προστέθηκε το Χριστουγεννιάτικο επεισόδιο Nicky, Ricky, Dicky & Dawn!

[Πρέπει να είστε εγγεγραμμένοι και συνδεδεμένοι για να δείτε αυτόν το σύνδεσμο.]

============================================================
iCarly: iChristmas
[Πρέπει να είστε εγγεγραμμένοι και συνδεδεμένοι για να δείτε αυτόν το σύνδεσμο.]
Όταν ο Σπένσερ καταστρέφει το Χριστουγεννιάτικο δέντρο, η Κάρλι εύχεται ο Σπένσερ να μην είχε γεννηθεί... Το αποτέλεσμα είναι αναπάντεχο όταν ένας άγγελος πραγματοποιεί την ευχή.
Χαρακτηριστικά:
General thanks
Complete name                    : C:\Users\Tsaklas\Desktop\Νεανικές Σειρές Handbrake\Christmas Episodes\iCarly S02E09 iChristmas.mp4
Format                           : MPEG-4
Format profile                   : Base Media / Version 2
Codec ID                         : mp42
File size                        : 122 MiB
Duration                         : 22mn 29s
Overall bit rate                 : 760 Kbps
Encoded date                     : UTC 2014-11-27 17:45:06
Tagged date                      : UTC 2014-11-27 18:08:10
Writing application              : HandBrake 0.9.9 2013052900

Video
ID                               : 1
Format                           : AVC
Format/Info                      : Advanced Video Codec
Format profile                   : Main@L4.0
Format settings, CABAC           : Yes
Format settings, ReFrames        : 4 frames
Codec ID                         : avc1
Codec ID/Info                    : Advanced Video Coding
Duration                         : 22mn 29s
Bit rate mode                    : Variable
Bit rate                         : 596 Kbps
Width                            : 720 pixels
Height                           : 576 pixels
Display aspect ratio             : 16:9
Frame rate mode                  : Variable
Frame rate                       : 24.980 fps
Minimum frame rate               : 1.696 fps
Maximum frame rate               : 25.000 fps
Standard                         : PAL
Color space                      : YUV
Chroma subsampling               : 4:2:0
Bit depth                        : 8 bits
Scan type                        : Progressive
Bits/(Pixel*Frame)               : 0.057
Stream size                      : 95.8 MiB (78%)
Writing library                  : x264 core 130 r2273 b3065e6
Encoding settings                : cabac=1 / ref=1 / deblock=1:0:0 / analyse=0x1:0x111 / me=hex / subme=2 / psy=1 / psy_rd=1.00:0.00 / mixed_ref=0 / me_range=16 / chroma_me=1 / trellis=0 / 8x8dct=0 / cqm=0 / deadzone=21,11 / fast_pskip=1 / chroma_qp_offset=0 / threads=3 / lookahead_threads=1 / sliced_threads=0 / nr=0 / decimate=1 / interlaced=0 / bluray_compat=0 / constrained_intra=0 / bframes=3 / b_pyramid=2 / b_adapt=1 / b_bias=0 / direct=1 / weightb=1 / open_gop=0 / weightp=1 / keyint=250 / keyint_min=25 / scenecut=40 / intra_refresh=0 / rc_lookahead=10 / rc=crf / mbtree=1 / crf=26.0 / qcomp=0.60 / qpmin=0 / qpmax=69 / qpstep=4 / vbv_maxrate=20000 / vbv_bufsize=25000 / crf_max=0.0 / nal_hrd=none / ip_ratio=1.40 / aq=1:1.00
Encoded date                     : UTC 2014-11-27 17:45:06
Tagged date                      : UTC 2014-11-27 18:08:10
Color primaries                  : BT.601-6 525, BT.1358 525, BT.1700 NTSC, SMPTE 170M
Transfer characteristics         : BT.709-5, BT.1361
Matrix coefficients              : BT.601-6 525, BT.1358 525, BT.1700 NTSC, SMPTE 170M

Audio
ID                               : 2
Format                           : AAC
Format/Info                      : Advanced Audio Codec
Format profile                   : LC
Codec ID                         : 40
Duration                         : 22mn 27s
Bit rate mode                    : Variable
Bit rate                         : 160 Kbps
Maximum bit rate                 : 190 Kbps
Channel(s)                       : 2 channels
Channel positions                : Front: L R
Sampling rate                    : 48.0 KHz
Compression mode                 : Lossy
Stream size                      : 25.7 MiB (21%)
Language                         : Greek
Encoded date                     : UTC 2014-11-27 17:45:06
Tagged date                      : UTC 2014-11-27 18:08:10


============================================================
Big Time Christmas - by JCNick
[Πρέπει να είστε εγγεγραμμένοι και συνδεδεμένοι για να δείτε αυτόν το σύνδεσμο.]
Οι Big Time Rush ετοιμάζονται να επιστρέψουν στην πόλη τους, την Minnesota για τα Χριστούγεννα, όμως ο Griffin ζητά να ετοιμάσουν ένα Χριστουγεννιάτικο άλμπουμ με guest εμφανίσεις. Θα τα καταφέρουν;
Guest Stars: Miranda Cosgrove, Snoop Dog
Χαρακτηριστικά:
General
Complete name                    : G:\1 EPISODES\Big Time Rush\Season 2\S2E08-09 Big Time Christmas\BTR.S02E08-09FULL&HD.mp4
Format                           : MPEG-4
Format profile                   : Base Media
Codec ID                         : isom
File size                        : 325 MiB
Duration                         : 44mn 37s
Overall bit rate                 : 1 018 Kbps
Encoded date                     : UTC 2014-08-30 19:36:45
Tagged date                      : UTC 2014-08-30 19:36:45
Writing application              : FormatFactory : [Πρέπει να είστε εγγεγραμμένοι και συνδεδεμένοι για να δείτε αυτόν το σύνδεσμο.]

Video
ID                               : 1
Format                           : AVC
Format/Info                      : Advanced Video Codec
Format profile                   : High@L2.1
Format settings, CABAC           : No
Format settings, ReFrames        : 1 frame
Codec ID                         : avc1
Codec ID/Info                    : Advanced Video Coding
Duration                         : 44mn 37s
Bit rate mode                    : Variable
Bit rate                         : 900 Kbps
Maximum bit rate                 : 4 807 Kbps
Width                            : 1 024 pixels
Height                           : 576 pixels
Display aspect ratio             : 16:9
Frame rate mode                  : Constant
Frame rate                       : 23.976 fps
Color space                      : YUV
Chroma subsampling               : 4:2:0
Bit depth                        : 8 bits
Scan type                        : Progressive
Bits/(Pixel*Frame)               : 0.064
Stream size                      : 284 MiB (87%)
Writing library                  : x264 core 116 r2019 9cc407d
Encoding settings                : cabac=0 / ref=1 / deblock=1:0:0 / analyse=0x3:0x113 / me=hex / subme=7 / psy=1 / psy_rd=1.00:0.00 / mixed_ref=0 / me_range=16 / chroma_me=1 / trellis=1 / 8x8dct=1 / cqm=0 / deadzone=21,11 / fast_pskip=1 / chroma_qp_offset=-2 / threads=3 / sliced_threads=0 / nr=0 / decimate=1 / interlaced=0 / bluray_compat=0 / constrained_intra=0 / bframes=0 / weightp=2 / keyint=250 / keyint_min=23 / scenecut=40 / intra_refresh=0 / rc_lookahead=40 / rc=abr / mbtree=1 / bitrate=900 / ratetol=1.0 / qcomp=0.60 / qpmin=0 / qpmax=69 / qpstep=4 / ip_ratio=1.40 / aq=1:1.00
Encoded date                     : UTC 2014-08-30 19:36:45
Tagged date                      : UTC 2014-08-30 19:40:24


============================================================
Victorious: A Christmas Tori
[Πρέπει να είστε εγγεγραμμένοι και συνδεδεμένοι για να δείτε αυτόν το σύνδεσμο.]
Καθένας από την παρέα του Victorious αναλαμβάνει τον ρόλο του "Μυστικού Άγιου Βασίλη" και πρέπει να πάρει στον άλλον ένα ικανοποιητικό δώρο.
Χαρακτηριστικά:
General
Complete name                    : H:\1 EPISODES\Victorious\Season 3\S3E01 A Christmas Tori\Victorious S3E01 A Christmas Tori [Nickelodeon Greece].avi
Format                           : AVI
Format/Info                      : Audio Video Interleave
File size                        : 194 MiB
Duration                         : 22mn 32s
Overall bit rate                 : 1 204 Kbps
Writing application              : Lavf54.62.100

Video
ID                               : 0
Format                           : MPEG-4 Visual
Codec ID                         : MP43
Codec ID/Info                    : Microsoft MPEG-4 v3 (pre-standard)
Codec ID/Hint                    : Microsoft
Duration                         : 22mn 32s
Bit rate                         : 1 000 Kbps
Width                            : 640 pixels
Height                           : 480 pixels
Display aspect ratio             : 4:3
Frame rate                       : 25.000 fps
Compression mode                 : Lossy
Bits/(Pixel*Frame)               : 0.130
Stream size                      : 161 MiB (83%)

Audio
ID                               : 1
Format                           : MPEG Audio
Format version                   : Version 1
Format profile                   : Layer 3
Mode                             : Joint stereo
Codec ID                         : 55
Codec ID/Hint                    : MP3
Duration                         : 22mn 32s
Bit rate mode                    : Constant
Bit rate                         : 192 Kbps
Channel(s)                       : 2 channels
Sampling rate                    : 44.1 KHz
Compression mode                 : Lossy
Stream size                      : 31.0 MiB (16%)
Alignment                        : Aligned on interleaves
Interleave, duration             : 26 ms (0.65 video frame)


============================================================
The Troop: The Good, the Bad & the Ickie Doll
[Πρέπει να είστε εγγεγραμμένοι και συνδεδεμένοι για να δείτε αυτόν το σύνδεσμο.]
Οι νέες κούκλες που κάνουν πάταγο είναι στην πραγματικότητα τέρατα! Θα καταφέρουν ο Τζέικ, η Χέιλι και ο Φήλιξ να τις μαζέψουν από τα δώρα πριν το Χριστουγεννιάτικο πρωινό;
Χαρακτηριστικά:
General
Complete name                    : C:\Users\Tsaklas\Desktop\Νεανικές Σειρές Handbrake\Christmas Episodes\The Troop S01e11hd-1.mp4
Format                           : MPEG-4
Format profile                   : Base Media / Version 2
Codec ID                         : mp42
File size                        : 195 MiB
Duration                         : 23mn 36s
Overall bit rate                 : 1 153 Kbps
Encoded date                     : UTC 2014-11-15 12:14:15
Tagged date                      : UTC 2014-11-15 12:31:15
Writing application              : HandBrake 0.9.9 2013052900

Video
ID                               : 1
Format                           : AVC
Format/Info                      : Advanced Video Codec
Format profile                   : Main@L4.0
Format settings, CABAC           : Yes
Format settings, ReFrames        : 4 frames
Codec ID                         : avc1
Codec ID/Info                    : Advanced Video Coding
Duration                         : 23mn 36s
Bit rate mode                    : Variable
Bit rate                         : 989 Kbps
Width                            : 702 pixels
Height                           : 574 pixels
Display aspect ratio             : 16:9
Frame rate mode                  : Variable
Frame rate                       : 25.000 fps
Minimum frame rate               : 12.500 fps
Maximum frame rate               : 25.000 fps
Color space                      : YUV
Chroma subsampling               : 4:2:0
Bit depth                        : 8 bits
Scan type                        : Progressive
Bits/(Pixel*Frame)               : 0.098
Stream size                      : 167 MiB (86%)
Writing library                  : x264 core 130 r2273 b3065e6
Encoding settings                : cabac=1 / ref=1 / deblock=1:0:0 / analyse=0x1:0x111 / me=hex / subme=2 / psy=1 / psy_rd=1.00:0.00 / mixed_ref=0 / me_range=16 / chroma_me=1 / trellis=0 / 8x8dct=0 / cqm=0 / deadzone=21,11 / fast_pskip=1 / chroma_qp_offset=0 / threads=3 / lookahead_threads=1 / sliced_threads=0 / nr=0 / decimate=1 / interlaced=0 / bluray_compat=0 / constrained_intra=0 / bframes=3 / b_pyramid=2 / b_adapt=1 / b_bias=0 / direct=1 / weightb=1 / open_gop=0 / weightp=1 / keyint=250 / keyint_min=25 / scenecut=40 / intra_refresh=0 / rc_lookahead=10 / rc=crf / mbtree=1 / crf=25.0 / qcomp=0.60 / qpmin=0 / qpmax=69 / qpstep=4 / vbv_maxrate=20000 / vbv_bufsize=25000 / crf_max=0.0 / nal_hrd=none / ip_ratio=1.40 / aq=1:1.00
Encoded date                     : UTC 2014-11-15 12:14:15
Tagged date                      : UTC 2014-11-15 12:31:12
Color primaries                  : BT.470-6 System B, BT.470-6 System G, BT.601-6 625, BT.1358 625, BT.1700 625 PAL, BT.1700 625 SECAM
Transfer characteristics         : BT.709-5, BT.1361
Matrix coefficients              : BT.601-6 525, BT.1358 525, BT.1700 NTSC, SMPTE 170M

Audio
ID                               : 2
Format                           : AAC
Format/Info                      : Advanced Audio Codec
Format profile                   : LC
Codec ID                         : 40
Duration                         : 23mn 36s
Bit rate mode                    : Variable
Bit rate                         : 160 Kbps
Maximum bit rate                 : 201 Kbps
Channel(s)                       : 2 channels
Channel positions                : Front: L R
Sampling rate                    : 48.0 KHz
Compression mode                 : Lossy
Stream size                      : 27.0 MiB (14%)
Language                         : Greek
Encoded date                     : UTC 2014-11-15 12:14:15
Tagged date                      : UTC 2014-11-15 12:31:12


============================================================
Bucket & Skinner's Epic Christmas
[Πρέπει να είστε εγγεγραμμένοι και συνδεδεμένοι για να δείτε αυτόν το σύνδεσμο.]
Ο Μπάκετ είναι μίζερος επειδή κάνουν Χριστούγεννα με ζέστη, έτσι ζει μια παραλλαγή της γνωστής "Χριστουγεννιάτικης Ιστορίας" με τα 3 φαντάσματα ώστε να μάθει να είναι ευγνώμων.
Xαρακτηριστικά:
General
Complete name                    : C:\Users\Tsaklas\Desktop\Νεανικές Σειρές Handbrake\Christmas Episodes\Bucket & Skinner S01E19 Epic Christmas.mp4
Format                           : MPEG-4
Format profile                   : Base Media / Version 2
Codec ID                         : mp42
File size                        : 136 MiB
Duration                         : 22mn 32s
Overall bit rate                 : 843 Kbps
Encoded date                     : UTC 2014-11-27 17:29:42
Tagged date                      : UTC 2014-11-27 17:45:00
Writing application              : HandBrake 0.9.9 2013052900

Video
ID                               : 1
Format                           : AVC
Format/Info                      : Advanced Video Codec
Format profile                   : Main@L4.0
Format settings, CABAC           : Yes
Format settings, ReFrames        : 4 frames
Codec ID                         : avc1
Codec ID/Info                    : Advanced Video Coding
Duration                         : 22mn 32s
Bit rate mode                    : Variable
Bit rate                         : 679 Kbps
Width                            : 720 pixels
Height                           : 396 pixels
Display aspect ratio             : 16:9
Frame rate mode                  : Constant
Frame rate                       : 25.000 fps
Color space                      : YUV
Chroma subsampling               : 4:2:0
Bit depth                        : 8 bits
Scan type                        : Progressive
Bits/(Pixel*Frame)               : 0.095
Stream size                      : 109 MiB (81%)
Writing library                  : x264 core 130 r2273 b3065e6
Encoding settings                : cabac=1 / ref=1 / deblock=1:0:0 / analyse=0x1:0x111 / me=hex / subme=2 / psy=1 / psy_rd=1.00:0.00 / mixed_ref=0 / me_range=16 / chroma_me=1 / trellis=0 / 8x8dct=0 / cqm=0 / deadzone=21,11 / fast_pskip=1 / chroma_qp_offset=0 / threads=3 / lookahead_threads=1 / sliced_threads=0 / nr=0 / decimate=1 / interlaced=0 / bluray_compat=0 / constrained_intra=0 / bframes=3 / b_pyramid=2 / b_adapt=1 / b_bias=0 / direct=1 / weightb=1 / open_gop=0 / weightp=1 / keyint=250 / keyint_min=25 / scenecut=40 / intra_refresh=0 / rc_lookahead=10 / rc=crf / mbtree=1 / crf=26.0 / qcomp=0.60 / qpmin=0 / qpmax=69 / qpstep=4 / vbv_maxrate=20000 / vbv_bufsize=25000 / crf_max=0.0 / nal_hrd=none / ip_ratio=1.40 / aq=1:1.00
Encoded date                     : UTC 2014-11-27 17:29:42
Tagged date                      : UTC 2014-11-27 17:45:00
Color primaries                  : BT.470-6 System B, BT.470-6 System G, BT.601-6 625, BT.1358 625, BT.1700 625 PAL, BT.1700 625 SECAM
Transfer characteristics         : BT.709-5, BT.1361
Matrix coefficients              : BT.601-6 525, BT.1358 525, BT.1700 NTSC, SMPTE 170M

Audio
ID                               : 2
Format                           : AAC
Format/Info                      : Advanced Audio Codec
Format profile                   : LC
Codec ID                         : 40
Duration                         : 22mn 32s
Bit rate mode                    : Variable
Bit rate                         : 160 Kbps
Maximum bit rate                 : 193 Kbps
Channel(s)                       : 2 channels
Channel positions                : Front: L R
Sampling rate                    : 48.0 KHz
Compression mode                 : Lossy
Stream size                      : 25.8 MiB (19%)
Encoded date                     : UTC 2014-11-27 17:29:42
Tagged date                      : UTC 2014-11-27 17:45:00


============================================================
True Jackson: True Parade - by foojam2002
[Πρέπει να είστε εγγεγραμμένοι και συνδεδεμένοι για να δείτε αυτόν το σύνδεσμο.]
Η Τρου αναλαμβάνει να βρει μια ιδέα για να προωθήσει την Mad Style, και σκέφτεται να λανσάρει ένα παλτό για την Χριστουγεννιάτικη παρέλαση, η οποία πάει πολύ στραβά...
Xαρακτηριστικά:
General
Complete name                    : G:\1 EPISODES\True Jackson VP\Season 2\True Jackson S02E04 True Parade.wmv
Format                           : Windows Media
File size                        : 144 MiB
Duration                         : 22mn 21s
Overall bit rate mode            : Constant
Overall bit rate                 : 900 Kbps
Maximum Overall bit rate         : 907 Kbps
Encoded date                     : UTC 2014-06-07 09:33:52.718
Application                      : Windows Movie Maker 2.1.4028.0

Video
ID                               : 2
Format                           : VC-1
Format profile                   : MP@ML
Codec ID                         : WMV3
Codec ID/Info                    : Windows Media Video 9
Codec ID/Hint                    : WMV3
Description of the codec         : Windows Media Video 9
Duration                         : 22mn 21s
Bit rate mode                    : Constant
Bit rate                         : 768 Kbps
Width                            : 720 pixels
Height                           : 576 pixels
Display aspect ratio             : 5:4
Frame rate                       : 25.000 fps
Standard                         : PAL
Bit depth                        : 8 bits
Scan type                        : Progressive
Compression mode                 : Lossy
Bits/(Pixel*Frame)               : 0.074
Stream size                      : 123 MiB (85%)
Language                         : Greek

Audio
ID                               : 1
Format                           : WMA
Format version                   : Version 2
Codec ID                         : 161
Codec ID/Info                    : Windows Media Audio
Description of the codec         : Windows Media Audio 9.2 - 128 kbps, 44 kHz, stereo (A/V) 1-pass CBR
Duration                         : 22mn 21s
Bit rate mode                    : Constant
Bit rate                         : 128 Kbps
Channel(s)                       : 2 channels
Sampling rate                    : 44.1 KHz
Bit depth                        : 16 bits
Stream size                      : 20.5 MiB (14%)
Language                         : Greek

=====================================================
A Fairly OddChristmas - by JCNick
[Πρέπει να είστε εγγεγραμμένοι και συνδεδεμένοι για να δείτε αυτόν το σύνδεσμο.]
Υπόθεση: O Tίμι αναλαμβάνει τον ρόλο του Άγιου Βασίλη!
Χαρακτηριστικά:
General
Complete name                    : G:\1 EPISODES\A Fairly OddChristmas\A Fairly Odd Chrstmas(FULL HD GR).mp4
Format                           : MPEG-4
Format profile                   : Base Media
Codec ID                         : isom
File size                        : 277 MiB
Duration                         : 1h 5mn
Overall bit rate                 : 593 Kbps
Movie name                       : Watch AFairly Odd Chrstmas(FULL&HD&GR) mp4
Writing application              : Lavf55.13.102
widt                             : (Binary)
heig                             : (Binary)
urls                             : [Πρέπει να είστε εγγεγραμμένοι και συνδεδεμένοι για να δείτε αυτόν το σύνδεσμο.]
urlo                             : [Πρέπει να είστε εγγεγραμμένοι και συνδεδεμένοι για να δείτε αυτόν το σύνδεσμο.]

Video
ID                               : 1
Format                           : AVC
Format/Info                      : Advanced Video Codec
Format profile                   : High@L2.1
Format settings, CABAC           : Yes
Format settings, ReFrames        : 4 frames
Format settings, GOP             : M=4, N=50
Codec ID                         : avc1
Codec ID/Info                    : Advanced Video Coding
Duration                         : 1h 5mn
Duration_LastFrame               : -10ms
Bit rate mode                    : Variable
Bit rate                         : 491 Kbps
Width                            : 576 pixels
Height                           : 324 pixels
Display aspect ratio             : 16:9
Frame rate mode                  : Constant
Frame rate                       : 25.000 fps
Color space                      : YUV
Chroma subsampling               : 4:2:0
Bit depth                        : 8 bits
Scan type                        : Progressive
Bits/(Pixel*Frame)               : 0.105
Stream size                      : 229 MiB (83%)
Writing library                  : x264 core 135 r2345 f0c1c53
Encoding settings                : cabac=1 / ref=1 / deblock=1:0:0 / analyse=0x3:0x113 / me=hex / subme=2 / psy=1 / psy_rd=1.00:0.00 / mixed_ref=0 / me_range=16 / chroma_me=1 / trellis=0 / 8x8dct=1 / cqm=0 / deadzone=21,11 / fast_pskip=1 / chroma_qp_offset=0 / threads=36 / lookahead_threads=2 / sliced_threads=0 / nr=0 / decimate=1 / interlaced=0 / bluray_compat=0 / constrained_intra=0 / bframes=3 / b_pyramid=2 / b_adapt=1 / b_bias=0 / direct=1 / weightb=1 / open_gop=0 / weightp=1 / keyint=50 / keyint_min=5 / scenecut=40 / intra_refresh=0 / rc_lookahead=10 / rc=crf / mbtree=1 / crf=25.0 / qcomp=0.60 / qpmin=0 / qpmax=69 / qpstep=4 / ip_ratio=1.40 / aq=1:1.00

Audio
ID                               : 2
Format                           : AAC
Format/Info                      : Advanced Audio Codec
Format profile                   : LC
Codec ID                         : 40
Duration                         : 1h 5mn
Bit rate mode                    : Constant
Bit rate                         : 96.0 Kbps
Channel(s)                       : 2 channels
Channel positions                : Front: L R
Sampling rate                    : 44.1 KHz
Compression mode                 : Lossy
Stream size                      : 44.8 MiB (16%)


============================================================
Merry Christmas, Drake & Josh! - Subs by JasonC - Ακυκλοφόρητη στην Ελλάδα!
[Πρέπει να είστε εγγεγραμμένοι και συνδεδεμένοι για να δείτε αυτόν το σύνδεσμο.]
Ο Ντρέικ κι ο Τζος κατηγορούνται από λάθος για ληστεία και για να μην καταλήξουν στην φυλακή, πρέπει να προσφέρουν σε μια οικογένεια τα καλύτερα Χριστούγεννα!
Χαρακτηριστικά:
General
Complete name                    : H:\1 EPISODES\Drake & Josh\Merry Christmas, Drake & Josh\Merry Christmas, Drake & Josh.flv
Format                           : Flash Video
File size                        : 317 MiB
Duration                         : 1h 27mn
Overall bit rate                 : 503 Kbps
Tagging application              : Yet Another Metadata Injector for FLV - Version 1.9

Video
Format                           : AVC
Format/Info                      : Advanced Video Codec
Format profile                   : High@L2.1
Format settings, CABAC           : Yes
Format settings, ReFrames        : 4 frames
Codec ID                         : 7
Duration                         : 1h 27mn
Bit rate                         : 400 Kbps
Width                            : 512 pixels
Height                           : 320 pixels
Display aspect ratio             : 1.600
Frame rate mode                  : Constant
Frame rate                       : 23.976 fps
Color space                      : YUV
Chroma subsampling               : 4:2:0
Bit depth                        : 8 bits
Scan type                        : Progressive
Bits/(Pixel*Frame)               : 0.102
Stream size                      : 252 MiB (80%)
Writing library                  : x264 core 125 r2200 999b753
Encoding settings                : cabac=1 / ref=2 / deblock=1:0:0 / analyse=0x3:0x113 / me=hex / subme=6 / psy=1 / psy_rd=1.00:0.00 / mixed_ref=1 / me_range=16 / chroma_me=1 / trellis=1 / 8x8dct=1 / cqm=0 / deadzone=21,11 / fast_pskip=1 / chroma_qp_offset=-2 / threads=24 / lookahead_threads=4 / sliced_threads=0 / nr=0 / decimate=1 / interlaced=0 / bluray_compat=0 / constrained_intra=0 / bframes=3 / b_pyramid=2 / b_adapt=1 / b_bias=0 / direct=1 / weightb=1 / open_gop=0 / weightp=1 / keyint=250 / keyint_min=23 / scenecut=40 / intra_refresh=0 / rc_lookahead=30 / rc=2pass / mbtree=1 / bitrate=400 / ratetol=1.0 / qcomp=0.60 / qpmin=0 / qpmax=69 / qpstep=4 / cplxblur=20.0 / qblur=0.5 / vbv_maxrate=400 / vbv_bufsize=1000 / nal_hrd=none / ip_ratio=1.40 / aq=1:1.00

Audio
Format                           : AAC
Format/Info                      : Advanced Audio Codec
Format profile                   : LC
Codec ID                         : 10
Duration                         : 1h 27mn
Bit rate                         : 94.4 Kbps
Channel(s)                       : 2 channels
Channel positions                : Front: L R
Sampling rate                    : 44.1 KHz
Compression mode                 : Lossy
Stream size                      : 63.2 MiB (20%)


============================================================
Santa Hunters
[Πρέπει να είστε εγγεγραμμένοι και συνδεδεμένοι για να δείτε αυτόν το σύνδεσμο.]
Υπόθεση: Tέσσερα παιδιά κυνηγούν τον Άγιο Βασίλη!

Xαρακτηριστικά:
General
Complete name                    : C:\Users\Tsaklas\Desktop\28-12-2014\Santa Hunters.mp4
Format                           : MPEG-4
Format profile                   : Base Media / Version 2
Codec ID                         : mp42
File size                        : 698 MiB
Duration                         : 1h 5mn
Overall bit rate                 : 1 490 Kbps
Encoded date                     : UTC 2014-12-28 19:11:41
Tagged date                      : UTC 2014-12-28 20:20:02
Writing application              : HandBrake 0.9.9 2013052900

Video
ID                               : 1
Format                           : AVC
Format/Info                      : Advanced Video Codec
Format profile                   : Main@L4.0
Format settings, CABAC           : Yes
Format settings, ReFrames        : 4 frames
Codec ID                         : avc1
Codec ID/Info                    : Advanced Video Coding
Duration                         : 1h 5mn
Bit rate mode                    : Variable
Bit rate                         : 1 326 Kbps
Width                            : 720 pixels
Height                           : 576 pixels
Display aspect ratio             : 16:9
Original display aspect ratio    : 16:9
Frame rate mode                  : Variable
Frame rate                       : 25.000 fps
Minimum frame rate               : 8.333 fps
Maximum frame rate               : 25.000 fps
Standard                         : PAL
Color space                      : YUV
Chroma subsampling               : 4:2:0
Bit depth                        : 8 bits
Scan type                        : Progressive
Bits/(Pixel*Frame)               : 0.128
Stream size                      : 621 MiB (89%)
Writing library                  : x264 core 130 r2273 b3065e6
Encoding settings                : cabac=1 / ref=1 / deblock=1:0:0 / analyse=0x1:0x111 / me=hex / subme=2 / psy=1 / psy_rd=1.00:0.00 / mixed_ref=0 / me_range=16 / chroma_me=1 / trellis=0 / 8x8dct=0 / cqm=0 / deadzone=21,11 / fast_pskip=1 / chroma_qp_offset=0 / threads=3 / lookahead_threads=1 / sliced_threads=0 / nr=0 / decimate=1 / interlaced=0 / bluray_compat=0 / constrained_intra=0 / bframes=3 / b_pyramid=2 / b_adapt=1 / b_bias=0 / direct=1 / weightb=1 / open_gop=0 / weightp=1 / keyint=250 / keyint_min=25 / scenecut=40 / intra_refresh=0 / rc_lookahead=10 / rc=crf / mbtree=1 / crf=23.0 / qcomp=0.60 / qpmin=0 / qpmax=69 / qpstep=4 / vbv_maxrate=20000 / vbv_bufsize=25000 / crf_max=0.0 / nal_hrd=none / ip_ratio=1.40 / aq=1:1.00
Encoded date                     : UTC 2014-12-28 19:11:41
Tagged date                      : UTC 2014-12-28 20:20:02
Color primaries                  : BT.470-6 System B, BT.470-6 System G, BT.601-6 625, BT.1358 625, BT.1700 625 PAL, BT.1700 625 SECAM
Transfer characteristics         : BT.709-5, BT.1361
Matrix coefficients              : BT.601-6 525, BT.1358 525, BT.1700 NTSC, SMPTE 170M

Audio
ID                               : 2
Format                           : AAC
Format/Info                      : Advanced Audio Codec
Format profile                   : LC
Codec ID                         : 40
Duration                         : 1h 5mn
Bit rate mode                    : Variable
Bit rate                         : 160 Kbps
Maximum bit rate                 : 202 Kbps
Channel(s)                       : 2 channels
Channel positions                : Front: L R
Sampling rate                    : 48.0 KHz
Compression mode                 : Lossy
Stream size                      : 74.9 MiB (11%)
Language                         : Greek
Encoded date                     : UTC 2014-12-28 19:11:41
Tagged date                      : UTC 2014-12-28 20:20:02


============================================================
The Thundermans - Winter Thunderland
-
Nέο!!!
[Πρέπει να είστε εγγεγραμμένοι και συνδεδεμένοι για να δείτε αυτόν το σύνδεσμο.]
Ο Μαξ θέλει να καταστρέψει τα Χριστούγεννα για όλους, όμως μια επίσκεψη από το Πνεύμα των Χριστουγέννων θα τον ταράξει...

Xαρακτηριστικά:
Γενικά
Πλήρες όνομα                             : C:\Users\Παναγιώτης\Desktop\The Thundermans S02E14 Winter Thunderland.mp4
Μορφοποίηση                              : MPEG-4
Format_Profile                           : Base Media / Version 2
CodecID                                  : mp42
Μέγεθος αρχείου                          : 356 MiB
Duration/String                          : 22mn 38s
Συνολικό BitRate                         : 2 196 Kbps
Ημερομηνία κωδικοποίησης                 : UTC 2036-02-06 06:28:16
Tagged date                              : UTC 2036-02-06 06:28:16
Εφαρμογή εγγραφής                        : HandBrake 0.10.2 2015060900

Video
ID                                       : 1
Μορφοποίηση                              : AVC
Μορφοποίηση/                             : Advanced Video Codec
Format_Profile                           : Main@L4
Format_Settings_CABAC/String             : Ναι
Format_Settings_RefFrames/String         : 4 frame
CodecID                                  : avc1
/                                        : Advanced Video Coding
Duration/String                          : 22mn 38s
Ρυθμός μετάδοσης δεδομένων               : 1 872 Kbps
Πλάτος                                   : 1 038 εικονοστοιχεία
Ύψος                                     : 576 εικονοστοιχεία
Λόγος εικόνας                            : 16:9
Ρυθμός ανανέωσης πλαισίου                : 29,970 fps
ColorSpace                               : YUV
ChromaSubsampling                        : 4:2:0
BitDepth/String                          : 8 bits
ScanType/String                          : Συνεχής σάρωση
Bits/(Εικονοστοιχείο*Πλαίσιο)            : 0.104
StreamSize/String                        : 303 MiB (85%)
Βιβλιοθήκη κωδικοποιητή                  : x264 core 142 r2479 dd79a61
Ρυθμίσεις κωδικοποιητή                   : cabac=1 / ref=1 / deblock=1:0:0 / analyse=0x1:0x111 / me=hex / subme=2 / psy=1 / psy_rd=1.00:0.00 / mixed_ref=0 / me_range=16 / chroma_me=1 / trellis=0 / 8x8dct=0 / cqm=0 / deadzone=21,11 / fast_pskip=1 / chroma_qp_offset=0 / threads=6 / lookahead_threads=2 / sliced_threads=0 / nr=0 / decimate=1 / interlaced=0 / bluray_compat=0 / constrained_intra=0 / bframes=3 / b_pyramid=2 / b_adapt=1 / b_bias=0 / direct=1 / weightb=1 / open_gop=0 / weightp=1 / keyint=300 / keyint_min=30 / scenecut=40 / intra_refresh=0 / rc_lookahead=10 / rc=crf / mbtree=1 / crf=19.0 / qcomp=0.60 / qpmin=0 / qpmax=69 / qpstep=4 / vbv_maxrate=20000 / vbv_bufsize=25000 / crf_max=0.0 / nal_hrd=none / filler=0 / ip_ratio=1.40 / aq=1:1.00
Ημερομηνία κωδικοποίησης                 : UTC 2036-02-06 06:28:16
Tagged date                              : UTC 2036-02-06 06:28:16
colour_range                             : Limited
colour_primaries                         : BT.601 PAL
transfer_characteristics                 : BT.709
matrix_coefficients                      : BT.601

Ήχος
ID                                       : 2
Μορφοποίηση                              : AAC
Μορφοποίηση/                             : Advanced Audio Codec
Format_Profile                           : LC
CodecID                                  : 40
Duration/String                          : 22mn 38s
Ρυθμός μετάδοσης δεδομένων               : 317 Kbps
Κανάλι(α)                                : 2 κανάλια
Θέσεις καναλιών                          : Front: L R
Συχνότητα δειγματοληψίας                 : 48,0 KHz
StreamSize/String                        : 51,4 MiB (14%)
Τίτλος                                   : Stereo / Stereo
Γλώσσα                                   : English
Ημερομηνία κωδικοποίησης                 : UTC 2036-02-06 06:28:16
Tagged date                              : UTC 2036-02-06 06:28:16



============================================================
Nicky, Ricky, Dicky & Dawn - Santa's Little Harpers
-
Nέο!!!

[Πρέπει να είστε εγγεγραμμένοι και συνδεδεμένοι για να δείτε αυτόν το σύνδεσμο.]

Tα τετράδυμα αναγκάζονται να δουλέψουν στο μαγαζί των γονιών τους τα Χριστούγεννα, επειδή κρυφοκοίταξαν τα δώρα. Παράλληλα, η Αν και ο Τομ αλλάζουν θέσεις ως Άη-Βασίλης και Κα Βασίλη για να δουν ποιος έχει την πιο δύσκολη δουλειά!

Πληροφορίες αρχείων:
Γενικά
Πλήρες όνομα                             : C:\Users\Παναγιώτης\Desktop\Nicky, Ricky, Dicky & Dawn S01E12 Santa's Little Harpers.mp4
Μορφοποίηση                              : MPEG-4
Format_Profile                           : Base Media / Version 2
CodecID                                  : mp42
Μέγεθος αρχείου                          : 200 MiB
Duration/String                          : 22mn 29s
Συνολικό BitRate                         : 1 244 Kbps
Ημερομηνία κωδικοποίησης                 : UTC 2036-02-06 06:28:16
Tagged date                              : UTC 2036-02-06 06:28:16
Εφαρμογή εγγραφής                        : HandBrake 0.10.2 2015060900

Video
ID                                       : 1
Μορφοποίηση                              : AVC
Μορφοποίηση/                             : Advanced Video Codec
Format_Profile                           : Main@L4
Format_Settings_CABAC/String             : Ναι
Format_Settings_RefFrames/String         : 4 frame
CodecID                                  : avc1
/                                        : Advanced Video Coding
Duration/String                          : 22mn 29s
Ρυθμός μετάδοσης δεδομένων               : 1 100 Kbps
Πλάτος                                   : 720 εικονοστοιχεία
Ύψος                                     : 576 εικονοστοιχεία
Λόγος εικόνας                            : 16:9
Ρυθμός ανανέωσης πλαισίου                : 25,000 fps
Στάνταρ                                  : PAL
ColorSpace                               : YUV
ChromaSubsampling                        : 4:2:0
BitDepth/String                          : 8 bits
ScanType/String                          : Συνεχής σάρωση
Bits/(Εικονοστοιχείο*Πλαίσιο)            : 0.106
StreamSize/String                        : 173 MiB (87%)
Βιβλιοθήκη κωδικοποιητή                  : x264 core 142 r2479 dd79a61
Ρυθμίσεις κωδικοποιητή                   : cabac=1 / ref=1 / deblock=1:0:0 / analyse=0x1:0x111 / me=hex / subme=2 / psy=1 / psy_rd=1.00:0.00 / mixed_ref=0 / me_range=16 / chroma_me=1 / trellis=0 / 8x8dct=0 / cqm=0 / deadzone=21,11 / fast_pskip=1 / chroma_qp_offset=0 / threads=6 / lookahead_threads=2 / sliced_threads=0 / nr=0 / decimate=1 / interlaced=0 / bluray_compat=0 / constrained_intra=0 / bframes=3 / b_pyramid=2 / b_adapt=1 / b_bias=0 / direct=1 / weightb=1 / open_gop=0 / weightp=1 / keyint=250 / keyint_min=25 / scenecut=40 / intra_refresh=0 / rc_lookahead=10 / rc=abr / mbtree=1 / bitrate=1100 / ratetol=1.0 / qcomp=0.60 / qpmin=0 / qpmax=69 / qpstep=4 / vbv_maxrate=20000 / vbv_bufsize=25000 / nal_hrd=none / filler=0 / ip_ratio=1.40 / aq=1:1.00
Ημερομηνία κωδικοποίησης                 : UTC 2036-02-06 06:28:16
Tagged date                              : UTC 2036-02-06 06:28:16
colour_range                             : Limited
colour_primaries                         : BT.601 PAL
transfer_characteristics                 : BT.709
matrix_coefficients                      : BT.601

Ήχος
ID                                       : 2
Μορφοποίηση                              : AAC
Μορφοποίηση/                             : Advanced Audio Codec
Format_Profile                           : LC
CodecID                                  : 40
Duration/String                          : 22mn 29s
Ρυθμός μετάδοσης δεδομένων               : 160 Kbps
Κανάλι(α)                                : 2 κανάλια
Θέσεις καναλιών                          : Front: L R
Συχνότητα δειγματοληψίας                 : 48,0 KHz
StreamSize/String                        : 25,8 MiB (13%)
Τίτλος                                   : Stereo / Stereo
Γλώσσα                                   : Greek
Ημερομηνία κωδικοποίησης                 : UTC 2036-02-06 06:28:16
Tagged date                              : UTC 2036-02-06 06:28:16
Thumbnails:
[Πρέπει να είστε εγγεγραμμένοι και συνδεδεμένοι για να δείτε αυτόν το σύνδεσμο.]



============================================================

Καλές γιορτές σε όλους!

avatar

Δημοσίευση Την / Το Τρι Νοε 15, 2016 10:45 pm από paulina

thanks

avatar

Δημοσίευση Την / Το Τετ Νοε 16, 2016 3:12 pm από dinos182

Για άλλη μία φορά πολύ καλή συλλογή! Ευχαριστούμε πολύ!!

avatar

Δημοσίευση Την / Το Παρ Νοε 18, 2016 7:02 pm από joker

καλες γιορτες παιδια, ευχαριστουμε για την λιστα με τα χριστουγεννιατικα Very Happy

avatar

Δημοσίευση Την / Το Κυρ Φεβ 19, 2017 12:50 pm από teliosmetonma

ty

Επισκόπηση προηγούμενης Θ.Ενότητας Επισκόπηση επόμενης Θ.Ενότητας Επιστροφή στην κορυφή Μήνυμα [Σελίδα 1 από 2]

Μετάβαση στη σελίδα : 1, 2  Επόμενο

Δικαιώματα σας στην κατηγορία αυτή
Δεν μπορείτε να απαντήσετε στα Θέματα αυτής της Δ.Συζήτησης