Teen Spirit

Ένα φόρουμ αποκλειστικά για νεανικές σειρές στα ελληνικά!


Μη Συνδεδεμενος Παρακαλώ συνδεθείτε ή εγγραφείτε

[MEGA] StarStruck WEBRip (2010)

Επισκόπηση προηγούμενης Θ.Ενότητας Επισκόπηση επόμενης Θ.Ενότητας Πήγαινε κάτω Μήνυμα [Σελίδα 1 από 1]

avatar

Santo


Ultra Member
Ultra Member

StarStruck



Περίληψη:
Ετοιμαστείτε για... Αστρομπλεξίματα. Μια λαμπερή κομεντί γεμάτη ρυθμό, τρέλα, αστέρια της pop, απίθανη μουσική αλλά και νεανικά μπερδέματα σε κάθε της δευτερόλεπτο υπόσχεται να σας ταξιδέψει μέχρι... τα αστέρια και να σας κάνει να ερωτευθείτε κεραυνοβόλα. Το ανερχόμενο αστέρι της pop, ο γοητευτικός Κρίστοφερ Γουάιλντ συναντά τυχαία στο Λος Άντζελες τη Τζέσικα Όλσον, ένα απλό κορίτσι από μια μικρή πόλη και τότε... τα βέλη του έρωτα βρίσκουν το στόχο τους. Όμως οι paparazzi ξεφυτρώνουν από παντού και τα αισθήματα τους δοκιμάζονται όταν εκείνος αρνείται τη σχέση τους... Η συνέχεια επί οθόνης.

Screenshots/Thumbnails:

Χαρακτηριστικά:
General
Complete name                  : StarStruck 2010.avi
Format                         : AVI
Format/Info                    : Audio Video Interleave
File size                      : 701 MiB
Duration                       : 1h 19mn
Overall bit rate mode          : Variable
Overall bit rate               : 1 232 Kbps
Writing application            : Lavf52.32.0

Video
ID                             : 0
Format                         : MPEG-4 Visual
Format profile                 : Advanced Simple@L5
Format settings, BVOP          : 2
Format settings, QPel          : No
Format settings, GMC           : No warppoints
Format settings, Matrix        : Default (H.263)
Codec ID                       : XVID
Codec ID/Hint                  : XviD
Duration                       : 1h 19mn
Bit rate                       : 1 094 Kbps
Width                          : 624 pixels
Height                         : 352 pixels
Display aspect ratio           : 16:9
Frame rate                     : 23.976 fps
Color space                    : YUV
Chroma subsampling             : 4:2:0
Bit depth                      : 8 bits
Scan type                      : Progressive
Compression mode               : Lossy
Bits/(Pixel*Frame)             : 0.208
Stream size                    : 623 MiB (89%)
Writing library                : XviD 1.2.1 (UTC 2008-12-04)

Audio
ID                             : 1
Format                         : MPEG Audio
Format version                 : Version 1
Format profile                 : Layer 3
Mode                           : Joint stereo
Mode extension                 : MS Stereo
Codec ID                       : 55
Codec ID/Hint                  : MP3
Duration                       : 1h 19mn
Bit rate mode                  : Variable
Bit rate                       : 112 Kbps
Channel(s)                     : 2 channels
Sampling rate                  : 48.0 KHz
Compression mode               : Lossy
Stream size                    : 71.1 MiB (10%)
Alignment                      : Aligned on interleaves
Interleave, duration           : 24 ms (0.58 video frame)


Υπότιτλοι:
Οι υπότιτλοι είναι εξωτερικοί και ανήκουν στην σελίδα [Πρέπει να είστε εγγεγραμμένοι και συνδεδεμένοι για να δείτε αυτόν το σύνδεσμο.]

Link:


Πρέπει να κάνετε ένα σχόλιο για να δείτε το link.
Το αρχικό ανέβασμα δεν είναι δικό μου.

ΚΑΛΗ ΘΕΑΣΗ Very Happy



Έχει επεξεργασθεί από τον/την Santo στις Πεμ Δεκ 15, 2016 12:51 am, 2 φορές συνολικά

Μοιραστείτε αυτή τη δημοσίευση στο:Excite BookmarksDiggRedditDel.icio.usGoogleLiveSlashdotNetscapeTechnoratiStumbleUponNewsvineFurlYahooSmarking

avatar

Δημοσίευση Την / Το Παρ Δεκ 26, 2014 5:30 pm από lef0

ευχαριστωω Very Happy

Δημοσίευση Την / Το Παρ Δεκ 26, 2014 7:51 pm από TB87

ευχαριστω

avatar

Δημοσίευση Την / Το Παρ Δεκ 26, 2014 9:56 pm από Alex

Ευχαριστώ!

Δημοσίευση Την / Το Σαβ Ιουλ 25, 2015 10:55 am από sparky92

ευχαριστω πολυ

avatar

Δημοσίευση Την / Το Σαβ Ιουλ 25, 2015 12:35 pm από gazakias1970

ευχαριστώ.

avatar

Δημοσίευση Την / Το Δευ Μαϊος 16, 2016 10:18 pm από AUSTIN B.

Μπορει να μπει στα ελληνικα????

avatar

Δημοσίευση Την / Το Τρι Μαϊος 17, 2016 12:52 am από Santo

AUSTIN B. έγραψε:Μπορει να μπει στα ελληνικα????

Θα ψάξω αν υπάρχει κάπου μεταγλωττισμένο στα ελληνικά και αν βρω κάτι θα το ανεβάσω. Very Happy

Δημοσίευση Την / Το Τρι Μαϊος 17, 2016 6:54 am από disney12

teleia seira

avatar

Δημοσίευση Την / Το Δευ Απρ 17, 2017 6:02 pm από Andria<3

!!!

avatar

Δημοσίευση Την / Το Τρι Μαϊος 23, 2017 11:31 pm από Αλίκη Φραγοπούλου

Ευχαριστώ!

Επισκόπηση προηγούμενης Θ.Ενότητας Επισκόπηση επόμενης Θ.Ενότητας Επιστροφή στην κορυφή Μήνυμα [Σελίδα 1 από 1]

Δικαιώματα σας στην κατηγορία αυτή
Δεν μπορείτε να απαντήσετε στα Θέματα αυτής της Δ.Συζήτησης