Teen Spirit

Ένα φόρουμ αποκλειστικά για νεανικές σειρές στα ελληνικά!


Μη Συνδεδεμενος Παρακαλώ συνδεθείτε ή εγγραφείτε

[MEGA] Santa Hunters DTVRip (2014)

Επισκόπηση προηγούμενης Θ.Ενότητας Επισκόπηση επόμενης Θ.Ενότητας Πήγαινε κάτω Μήνυμα [Σελίδα 1 από 1]

avatar

Tsaklas


Admin
Admin
http://teenspirit.forumgreek.com

Παγιδεύοντας τον Άη Βασίλη!

Ο 9χρονος Alex ξέρει ότι ο Άγιος Βασίλης υπάρχει και είναι αποφασισμένος να το αποδείξει. Ο  Άλεξ, η ξαδέρφη του Zoey και η οικογένειά τους, στήνουν μια σειρά από παγίδες και εξοπλίζονται με τις κατάλληλες συσκευές, ώστε να πιάσουν και να βιντεοσκοπήσουν τον Άγιο Βασίλη την νύχτα της παραμονή των Χριστουγέννων. Δεν ξέρουν όμως ότι αν καταφέρουν να τον δουν, τότε αυτός θα χάσει τη Χριστουγεννιάτική του μαγεία!
Τα πλάνα όμως που αποδεικνύουν την ύπαρξη του Αϊ-Βασίλη, πέφτουν στα χέρια της κακιάς Νατάσας, και είναι στο χέρι του Alex και της οικογένειά του να προστατεύσουν την ταινία και να σώσουν τα Χριστούγεννα για όλους!
Θα καταστρέψουν τα Χριστούγεννα για όλο τον κόσμο; Ή θα μάθουν ότι το να πιστεύουν σε κάτι, είναι πραγματικά πιο σημαντικό από αυτό που πραγματικά βλέπουμε;

Η ταινία είναι αποτέλεσμα δικής μου ψηφιακής εγγραφής μέσω του καναλιού Nickelodeon, στο οποίο και προβλήθηκε την Κυριακή 28 Δεκεμβρίου.



Xαρακτηριστικά:
General
Complete name                    : C:\Users\Τsaklas\Desktop\28-12-2014\Santa Hunters.mp4
Format                           : MPEG-4
Format profile                   : Base Media / Version 2
Codec ID                         : mp42
File size                        : 698 MiB
Duration                         : 1h 5mn
Overall bit rate                 : 1 490 Kbps
Encoded date                     : UTC 2014-12-28 19:11:41
Tagged date                      : UTC 2014-12-28 20:20:02
Writing application              : HandBrake 0.9.9 2013052900

Video
ID                               : 1
Format                           : AVC
Format/Info                      : Advanced Video Codec
Format profile                   : Main@L4.0
Format settings, CABAC           : Yes
Format settings, ReFrames        : 4 frames
Codec ID                         : avc1
Codec ID/Info                    : Advanced Video Coding
Duration                         : 1h 5mn
Bit rate mode                    : Variable
Bit rate                         : 1 326 Kbps
Width                            : 720 pixels
Height                           : 576 pixels
Display aspect ratio             : 16:9
Original display aspect ratio    : 16:9
Frame rate mode                  : Variable
Frame rate                       : 25.000 fps
Minimum frame rate               : 8.333 fps
Maximum frame rate               : 25.000 fps
Standard                         : PAL
Color space                      : YUV
Chroma subsampling               : 4:2:0
Bit depth                        : 8 bits
Scan type                        : Progressive
Bits/(Pixel*Frame)               : 0.128
Stream size                      : 621 MiB (89%)
Writing library                  : x264 core 130 r2273 b3065e6
Encoding settings                : cabac=1 / ref=1 / deblock=1:0:0 / analyse=0x1:0x111 / me=hex / subme=2 / psy=1 / psy_rd=1.00:0.00 / mixed_ref=0 / me_range=16 / chroma_me=1 / trellis=0 / 8x8dct=0 / cqm=0 / deadzone=21,11 / fast_pskip=1 / chroma_qp_offset=0 / threads=3 / lookahead_threads=1 / sliced_threads=0 / nr=0 / decimate=1 / interlaced=0 / bluray_compat=0 / constrained_intra=0 / bframes=3 / b_pyramid=2 / b_adapt=1 / b_bias=0 / direct=1 / weightb=1 / open_gop=0 / weightp=1 / keyint=250 / keyint_min=25 / scenecut=40 / intra_refresh=0 / rc_lookahead=10 / rc=crf / mbtree=1 / crf=23.0 / qcomp=0.60 / qpmin=0 / qpmax=69 / qpstep=4 / vbv_maxrate=20000 / vbv_bufsize=25000 / crf_max=0.0 / nal_hrd=none / ip_ratio=1.40 / aq=1:1.00
Encoded date                     : UTC 2014-12-28 19:11:41
Tagged date                      : UTC 2014-12-28 20:20:02
Color primaries                  : BT.470-6 System B, BT.470-6 System G, BT.601-6 625, BT.1358 625, BT.1700 625 PAL, BT.1700 625 SECAM
Transfer characteristics         : BT.709-5, BT.1361
Matrix coefficients              : BT.601-6 525, BT.1358 525, BT.1700 NTSC, SMPTE 170M

Audio
ID                               : 2
Format                           : AAC
Format/Info                      : Advanced Audio Codec
Format profile                   : LC
Codec ID                         : 40
Duration                         : 1h 5mn
Bit rate mode                    : Variable
Bit rate                         : 160 Kbps
Maximum bit rate                 : 202 Kbps
Channel(s)                       : 2 channels
Channel positions                : Front: L R
Sampling rate                    : 48.0 KHz
Compression mode                 : Lossy
Stream size                      : 74.9 MiB (11%)
Language                         : Greek
Encoded date                     : UTC 2014-12-28 19:11:41
Tagged date                      : UTC 2014-12-28 20:20:02
Thumbnails:
Πατήστε την εικόνα για μεγέθυνση
Συντελεστές:
Άλεξ: Benjamin Flores, Jr.
Ζόι: Breanna Yde
Ρίτσαρντ: Mace Coronel
Ελίζαμπεθ: Laya DeLeon Hayes
Άγιος Βασίλης: Donavon Stinson
Θείος Τσάρλι: Kelly Perine
Νατάσα: April Telek

Υποτιτλισμός: AbFab Productions




Να μην προστεθεί αλλού. Αποκλειστικά για το TeenSpirit



Έχει επεξεργασθεί από τον/την Tsaklas στις Δευ Οκτ 26, 2015 1:31 pm, 3 φορές συνολικά

Μοιραστείτε αυτή τη δημοσίευση στο:Excite BookmarksDiggRedditDel.icio.usGoogleLiveSlashdotNetscapeTechnoratiStumbleUponNewsvineFurlYahooSmarking

avatar

Δημοσίευση Την / Το Τρι Δεκ 30, 2014 12:34 pm από Alex

Ευχαριστώ!

avatar

Δημοσίευση Την / Το Πεμ Ιαν 01, 2015 5:07 pm από savvas

thanks

Δημοσίευση Την / Το Δευ Ιαν 05, 2015 8:12 am από TB87

ευχαριστω

avatar

Δημοσίευση Την / Το Κυρ Ιαν 18, 2015 1:35 pm από redlegend

ευχαριστούμε Smile

avatar

Δημοσίευση Την / Το Δευ Ιουν 01, 2015 1:56 pm από LazarosNickelodeon

avatar

Δημοσίευση Την / Το Τρι Μαρ 29, 2016 4:09 pm από Jimis Wolf

☺☺☺☺☺☺☺☺☺☺thnks

avatar

Δημοσίευση Την / Το Δευ Μαϊος 30, 2016 4:45 pm από Jimis10

Θενξ

avatar

Δημοσίευση Την / Το Κυρ Ιουλ 24, 2016 5:06 am από 12041912

Very Happy

avatar

Δημοσίευση Την / Το Δευ Δεκ 26, 2016 9:13 pm από PKDAPF

THANKS

avatar

Δημοσίευση Την / Το Παρ Δεκ 30, 2016 6:55 pm από stefania12

τελεια τενια

avatar

Δημοσίευση Την / Το Κυρ Απρ 23, 2017 9:00 pm από kdionisis01

thanks

avatar

Δημοσίευση Την / Το Κυρ Απρ 23, 2017 9:34 pm από teliosmetonma

ty

Επισκόπηση προηγούμενης Θ.Ενότητας Επισκόπηση επόμενης Θ.Ενότητας Επιστροφή στην κορυφή Μήνυμα [Σελίδα 1 από 1]

Δικαιώματα σας στην κατηγορία αυτή
Δεν μπορείτε να απαντήσετε στα Θέματα αυτής της Δ.Συζήτησης