Teen Spirit

Ένα φόρουμ αποκλειστικά για νεανικές σειρές στα ελληνικά!


Μη Συνδεδεμενος Παρακαλώ συνδεθείτε ή εγγραφείτε

[MEGA] The fresh prince of Bel-Air WEBRip-DVDRip-DTVRip (1990-1996)

Επισκόπηση προηγούμενης Θ.Ενότητας Επισκόπηση επόμενης Θ.Ενότητας Πήγαινε κάτω Μήνυμα [Σελίδα 1 από 1]

avatar

teliosmetonma


Ultra Member
Ultra Member
http://yugiohgr.forumgreek.com/

The Fresh Prince of Bel-Air - Ο πρίγκιπας του Μπελ-Αιρ
[Πρέπει να είστε εγγεγραμμένοι και συνδεδεμένοι για να δείτε αυτόν το σύνδεσμο.]



ΤΑ UPLOADS ΣΥΝΕΧΙΖΟΝΤΑΙ...

Τα επεισόδια είναι από το παλιό AnimaForum! Εγώ απλά τα έκανα upload στο MEGA



ΜΕΤΑ ΑΠΟ ΤΗ ΣΕΖΟΝ 3 ΟΛΑ ΤΑ ΕΠΕΙΣΟΔΙΑ ΕΙΝΑΙ ΡΙΠ ΑΠΟ ΤΟ STAR


Εάν κάποιος έχει ένα από τα παρακάτω επεισόδια που λείπουν θα τον παρακαλούσα να μου στείλει pm:
ΕΠΕΙΣΟΔΙΑ ΠΟΥ ΛΕΙΠΟΥΝ:
S01E11  Sad 
S04E01  Sad 
S04E21  Sad
S06E05  Sad
ΠΛΗΡΟΦΟΡΙΕΣ ΑΡΧΕΙΩΝ:
General
Complete name                  : C:\Users\Eleni\Pictures\gx greek\nickn\uploads\S01E01.mp4
Format                         : MPEG-4
Format profile                 : Base Media
Codec ID                       : isom
File size                      : 99.9 MiB
Duration                       : 22mn 2s
Overall bit rate mode          : Variable
Overall bit rate               : 634 Kbps
Encoded date                   : UTC 2013-05-22 15:08:53
Tagged date                    : UTC 2013-05-22 15:08:53


Video
ID                             : 1
Format                         : AVC
Format/Info                    : Advanced Video Codec
Format profile                 : High@L3
Format settings, CABAC         : Yes
Format settings, ReFrames      : 5 frames
Codec ID                       : avc1
Codec ID/Info                  : Advanced Video Coding
Duration                       : 22mn 2s
Bit rate                       : 588 Kbps
Maximum bit rate               : 1 854 Kbps
Width                          : 640 pixels
Height                         : 480 pixels
Display aspect ratio           : 4:3
Frame rate mode                : Constant
Frame rate                     : 25.000 fps
Color space                    : YUV
Chroma subsampling             : 4:2:0
Bit depth                      : 8 bits
Scan type                      : Progressive
Bits/(Pixel*Frame)             : 0.077
Stream size                    : 92.7 MiB (93%)
Title                          : /var/www/cgi-bin/uploads/01/00302/w12ec1ek33vi.h264 - Imported with GPAC 0.4.6-DEV (internal rev. Cool
Writing library                : x264 core 118
Encoding settings              : cabac=1 / ref=5 / deblock=1:0:0 / analyse=0x3:0x113 / me=umh / subme=8 / psy=1 / psy_rd=1.00:0.00 / mixed_ref=1 / me_range=16 / chroma_me=1 / trellis=1 / 8x8dct=1 / cqm=0 / deadzone=21,11 / fast_pskip=1 / chroma_qp_offset=-2 / threads=12 / sliced_threads=0 / nr=0 / decimate=1 / interlaced=0 / bluray_compat=0 / constrained_intra=0 / bframes=3 / b_pyramid=2 / b_adapt=2 / b_bias=0 / direct=3 / weightb=1 / open_gop=0 / weightp=2 / keyint=250 / keyint_min=25 / scenecut=40 / intra_refresh=0 / rc_lookahead=50 / rc=crf / mbtree=1 / crf=24.0 / qcomp=0.60 / qpmin=0 / qpmax=69 / qpstep=4 / ip_ratio=1.40 / aq=1:1.00
Encoded date                   : UTC 2013-05-22 15:08:53
Tagged date                    : UTC 2013-05-22 15:08:54


Audio
ID                             : 2
Format                         : AAC
Format/Info                    : Advanced Audio Codec
Format profile                 : HE-AAC / LC
Codec ID                       : 40
Duration                       : 22mn 2s
Bit rate mode                  : Variable
Bit rate                       : 42.0 Kbps
Maximum bit rate               : 49.6 Kbps
Channel(s)                     : 1 channel
Channel positions              : Front: C
Sampling rate                  : 44.1 KHz / 22.05 KHz
Compression mode               : Lossy
Stream size                    : 6.61 MiB (7%)
Encoded date                   : UTC 2013-05-22 15:08:54
Tagged date                    : UTC 2013-05-22 15:08:54

THUMBNAILS:


ΕΠΕΙΣΟΔΙΑ:


Για να δείτε τα λινκς πείτε ευχαριστώ!



Έχει επεξεργασθεί από τον/την teliosmetonma στις Δευ Σεπ 04, 2017 10:44 am, 7 φορές συνολικά

Μοιραστείτε αυτή τη δημοσίευση στο:Excite BookmarksDiggRedditDel.icio.usGoogleLiveSlashdotNetscapeTechnoratiStumbleUponNewsvineFurlYahooSmarking

avatar

Δημοσίευση Την / Το Κυρ Μαϊος 07, 2017 11:17 am από Jimis10

Ευχαριστω πολυυυ

avatar

Δημοσίευση Την / Το Δευ Μαϊος 08, 2017 10:26 am από Tsaklas

Ευχαριστούμε. Είναι WEBRip όχι DTVRip. Διορθώθηκε.

avatar

Δημοσίευση Την / Το Δευ Μαϊος 08, 2017 12:42 pm από teliosmetonma

Tsaklas έγραψε:Ευχαριστούμε. Είναι WEBRip όχι DTVRip. Διορθώθηκε.

Ναι αλλά τα περισσότερα που θα ανεβάσω θα είναι DTVRip από σταρ, κάποια DVDRips και τα WEBRips που είπες

avatar

Δημοσίευση Την / Το Τρι Μαϊος 09, 2017 3:25 pm από teliosmetonma

Προστέθηκε η σεζόν 2!  (y)

avatar

Δημοσίευση Την / Το Τετ Μαϊος 10, 2017 11:50 am από Usagi

Ευχαριστούμε πολύ! Τέλειο! cheers

avatar

Δημοσίευση Την / Το Τετ Μαϊος 10, 2017 2:46 pm από teliosmetonma

Προστέθηκε η σεζόν 3,4!  (y)

avatar

Δημοσίευση Την / Το Κυρ Μαϊος 14, 2017 11:40 am από teliosmetonma

Προστέθηκε η σεζόν 5!  (y)

Δημοσίευση Την / Το Σαβ Ιουν 17, 2017 7:27 am από TB87

ευχαριστω!

avatar

Δημοσίευση Την / Το Δευ Σεπ 04, 2017 10:45 am από teliosmetonma

Προστέθηκε η σεζόν 6!  

Επισκόπηση προηγούμενης Θ.Ενότητας Επισκόπηση επόμενης Θ.Ενότητας Επιστροφή στην κορυφή Μήνυμα [Σελίδα 1 από 1]

Δικαιώματα σας στην κατηγορία αυτή
Δεν μπορείτε να απαντήσετε στα Θέματα αυτής της Δ.Συζήτησης