Teen Spirit

Ένα φόρουμ αποκλειστικά για νεανικές σειρές στα ελληνικά!


Μη Συνδεδεμενος Παρακαλώ συνδεθείτε ή εγγραφείτε

[MEGA] The Ultimate Christmas Present SATRip (2000)

Επισκόπηση προηγούμενης Θ.Ενότητας Επισκόπηση επόμενης Θ.Ενότητας Πήγαινε κάτω Μήνυμα [Σελίδα 1 από 1]

avatar

Alex


Admin
Admin
https://www.youtube.com/user/ALEXM99999

Το Καλλύτερο Χριστουγεννιάτικο Δώρο



Περίληψη:
Δύο κορίτσια ανακαλύπτουν μια μηχανή που φτιάχνει χιόνι και τη χρησιμοποιούν για να κάνουν το LosAngeles να χιονίσει! Ωστόσο, αυτή η μηχανή είναι του Αι Βασίλη και μπλέκονται σε απίστευτες περιπέτειες με σκοπό να την επιστρέψουν!

Χαρακτηριστικά:
General
Complete name                            : C:\Users\alex\Series\THE_ULTIMATE_CHRISTMAS_PRESENT.avi
Format                                   : AVI
Format/Info                              : Audio Video Interleave
File size                                : 942 MiB
Duration                                 : 1h 17mn
Overall bit rate                         : 1 701 Kbps

Video
ID                                       : 0
Format                                   : AVC
Format/Info                              : Advanced Video Codec
Format profile                           : Main@L5.1
Format settings, CABAC                   : Yes
Format settings, ReFrames                : 1 frame
Codec ID                                 : H264
Duration                                 : 1h 17mn
Bit rate                                 : 1 499 Kbps
Width                                    : 1 024 pixels
Height                                   : 576 pixels
Display aspect ratio                     : 16:9
Frame rate                               : 25.000 fps
Color space                              : YUV
Chroma subsampling                       : 4:2:0
Bit depth                                : 8 bits
Scan type                                : Progressive
Bits/(Pixel*Frame)                       : 0.102
Stream size                              : 831 MiB (88%)

Audio
ID                                       : 1
Format                                   : MPEG Audio
Format version                           : Version 1
Format profile                           : Layer 3
Codec ID                                 : 55
Codec ID/Hint                            : MP3
Duration                                 : 1h 17mn
Bit rate mode                            : Constant
Bit rate                                 : 192 Kbps
Channel(s)                               : 2 channels
Sampling rate                            : 44.1 KHz
Compression mode                         : Lossy
Stream size                              : 106 MiB (11%)
Alignment                                : Split accross interleaves
Interleave, duration                     : 40 ms (1.01 video frame)
Interleave, preload duration             : 153 ms

Μεταγλωττιστές:
Δημήτρης Παπαδάτος
Φοίβος Ριμένας
Χρύσα Σαμαρά
Γιάννης Υφαντής

Links:


Κωδικός:
christmas_present.alex



Έχει επεξεργασθεί από τον/την Alex στις Δευ Οκτ 26, 2015 1:20 pm, 1 φορά

Μοιραστείτε αυτή τη δημοσίευση στο:diggdeliciousredditstumbleuponslashdotyahoogooglelive

avatar

Δημοσίευση Την / Το Πεμ Ιαν 01, 2015 10:44 pm από lef0

ευχαριστω

Δημοσίευση Την / Το Δευ Ιαν 05, 2015 8:15 am από TB87

ευχαριστω

Δημοσίευση Την / Το Κυρ Ιαν 18, 2015 1:35 pm από Επισκέπτης

ευχαριστούμε Smile

Δημοσίευση Την / Το Δευ Ιουλ 20, 2015 4:18 pm από panagiotis94

avatar

Δημοσίευση Την / Το Τρι Ιουλ 26, 2016 6:16 pm από tsilas1

avatar

Δημοσίευση Την / Το Δευ Οκτ 17, 2016 6:45 pm από tironsi74

Thanks

Δημοσίευση Την / Το Κυρ Οκτ 30, 2016 12:24 pm από ihaveyouall

Δημοσίευση Την / Το Κυρ Δεκ 18, 2016 5:29 pm από disney12

teleio

avatar

Δημοσίευση Την / Το Κυρ Νοε 26, 2017 3:32 pm από cat2

avatar

Δημοσίευση Την / Το Κυρ Νοε 26, 2017 3:34 pm από cat2

Crying or Very sad
[Πρέπει να είστε εγγεγραμμένοι και συνδεδεμένοι για να δείτε αυτόν το σύνδεσμο.] έγραψε:

avatar

Δημοσίευση Την / Το Παρ Δεκ 01, 2017 5:34 pm από marios121

Ευχαριστώ πολύ .Τα χριστούγεννα πλησιάζουν

avatar

Δημοσίευση Την / Το Δευ Δεκ 25, 2017 11:20 am από cat2

ΔΕΝ ΑΝΟΙΓΕΙ

avatar

Δημοσίευση Την / Το Κυρ Φεβ 04, 2018 12:00 pm από navarro

Thanks!

Επισκόπηση προηγούμενης Θ.Ενότητας Επισκόπηση επόμενης Θ.Ενότητας Επιστροφή στην κορυφή Μήνυμα [Σελίδα 1 από 1]

Δικαιώματα σας στην κατηγορία αυτή
Δεν μπορείτε να απαντήσετε στα Θέματα αυτής της Δ.Συζήτησης