Teen Spirit

Ένα φόρουμ αποκλειστικά για νεανικές σειρές στα ελληνικά!


Μη Συνδεδεμενος Παρακαλώ συνδεθείτε ή εγγραφείτε

[MEGA] Jinxed WEBRip [Ελληνικοί Υπότιτλοι] (2013)

Μετάβαση στη σελίδα : 1, 2  Επόμενο

Επισκόπηση προηγούμενης Θ.Ενότητας Επισκόπηση επόμενης Θ.Ενότητας Πήγαινε κάτω Μήνυμα [Σελίδα 1 από 2]

avatar

Tsaklas


Admin
Admin
http://teenspirit.forumgreek.com

Η οικογένεια των Μέρφι είναι καταραμένη με κακοτυχία. Η Μεγκ Μέρφι όμως αποφασίζει να σπάσει την κατάρα για να απολαύσει την ζωή της. Θα τα καταφέρει;

Η ταινία δεν έχει προβληθεί στην Ελλάδα. Έφτιαξα δικούς μου υπότιτλους και τους ενσωμάτωσα.

[Πρέπει να είστε εγγεγραμμένοι και συνδεδεμένοι για να δείτε αυτόν το σύνδεσμο.]

Χαρακτηριστικά:
General
Complete name                    : E:\1 EPISODES\Jinxed\JinxedGR.mp4
Format                           : MPEG-4
Format profile                   : Base Media
Codec ID                         : isom
File size                        : 998 MiB
Duration                         : 1h 7mn
Overall bit rate                 : 2 066 Kbps
Encoded date                     : UTC 2014-01-30 09:31:06
Tagged date                      : UTC 2014-01-30 09:31:06
Writing application              : FormatFactory : [Πρέπει να είστε εγγεγραμμένοι και συνδεδεμένοι για να δείτε αυτόν το σύνδεσμο.]

Video
ID                               : 1
Format                           : MPEG-4 Visual
Format profile                   : Simple@L1
Format settings, BVOP            : No
Format settings, QPel            : No
Format settings, GMC             : No warppoints
Format settings, Matrix          : Default (H.263)
Codec ID                         : 20
Duration                         : 1h 7mn
Bit rate mode                    : Variable
Bit rate                         : 1 938 Kbps
Maximum bit rate                 : 10.4 Mbps
Width                            : 728 pixels
Height                           : 408 pixels
Display aspect ratio             : 16:9
Frame rate mode                  : Constant
Frame rate                       : 23.976 fps
Color space                      : YUV
Chroma subsampling               : 4:2:0
Bit depth                        : 8 bits
Scan type                        : Progressive
Compression mode                 : Lossy
Bits/(Pixel*Frame)               : 0.272
Stream size                      : 936 MiB (94%)
Writing library                  : Lavc53.8.0
Encoded date                     : UTC 2014-01-30 09:31:06
Tagged date                      : UTC 2014-01-30 09:32:47

Audio
ID                               : 2
Format                           : AAC
Format/Info                      : Advanced Audio Codec
Format profile                   : LC
Codec ID                         : 40
Duration                         : 1h 7mn
Bit rate mode                    : Variable
Bit rate                         : 126 Kbps
Maximum bit rate                 : 159 Kbps
Channel(s)                       : 2 channels
Channel positions                : Front: L R
Sampling rate                    : 44.1 KHz
Compression mode                 : Lossy
Stream size                      : 60.7 MiB (6%)
Encoded date                     : UTC 2014-01-30 09:32:20
Tagged date                      : UTC 2014-01-30 09:32:47
Thumbnails:
[Πρέπει να είστε εγγεγραμμένοι και συνδεδεμένοι για να δείτε αυτόν το σύνδεσμο.]
Συντελεστές:
Ciara Bravo ως Meg Murphy
Jack Griffo ως Brett O'Leary
Jacob Bertrand ως Charlie Murphy
Elena Kampouris ως Ivy Murray
Burkely Duffield ως Tommy Murphy
Keegan Connor Tracy ως Mrs. Murphy
Donavon Stinson ως Mark Murphy
Jay Brazeau ως Παππούς

Υποτιτλισμός: Tsaklas




Παρακαλώ να μην προστεθεί αλλού. Ήθελε μέρες δουλειάς.



Έχει επεξεργασθεί από τον/την Tsaklas στις Δευ Οκτ 26, 2015 1:27 pm, 1 φορά

Μοιραστείτε αυτή τη δημοσίευση στο:Excite BookmarksDiggRedditDel.icio.usGoogleLiveSlashdotNetscapeTechnoratiStumbleUponNewsvineFurlYahooSmarking

avatar

Δημοσίευση Την / Το Κυρ Ιαν 18, 2015 1:34 pm από redlegend

ευχαριστούμε Very Happy

avatar

Δημοσίευση Την / Το Κυρ Ιαν 18, 2015 5:44 pm από savvas

thanks

avatar

Δημοσίευση Την / Το Κυρ Ιαν 18, 2015 6:58 pm από Alex

Ευχαριστώ!

Δημοσίευση Την / Το Κυρ Ιαν 18, 2015 11:15 pm από TB87

ευχαριστω

avatar

Δημοσίευση Την / Το Κυρ Μαϊος 03, 2015 10:22 am από Kim Possible

Δημοσίευση Την / Το Κυρ Μαϊος 24, 2015 9:34 pm από DRAKE AND JOSH FAN!

ευχαριστω

avatar

Δημοσίευση Την / Το Πεμ Μαϊος 28, 2015 3:45 pm από Ιάσων oLdSkoolισμόν

έλα ρε Τσάκλα...ωραίος.. Very Happy

avatar

Δημοσίευση Την / Το Δευ Ιουν 01, 2015 11:48 am από LazarosNickelodeon

Δημοσίευση Την / Το Τετ Ιουν 10, 2015 8:00 pm από ap-99

thanks

Δημοσίευση Την / Το Τετ Ιουν 10, 2015 8:01 pm από ap-99

thanks

Δημοσίευση Την / Το Σαβ Ιουλ 25, 2015 8:55 pm από sparky92

ευχαριστουμε

avatar

Δημοσίευση Την / Το Τρι Ιουλ 28, 2015 1:46 am από lef0

Ευχαριστώ!

Δημοσίευση Την / Το Δευ Αυγ 03, 2015 12:52 am από DRAKE AND JOSH FAN!

H Elena Kampouris ειναι ελληνίδα;

avatar

Δημοσίευση Την / Το Δευ Αυγ 03, 2015 2:09 am από Tsaklas

Ναι έχει Έλληνα πατέρα!

Δημοσίευση Την / Το Παρ Αυγ 07, 2015 2:45 pm από DRAKE AND JOSH FAN!

Χμμμ μέχρι και έλληνες πήγαν στο nickelodeon!!!!

avatar

Δημοσίευση Την / Το Δευ Φεβ 22, 2016 9:15 pm από stefania12

ορεα τενια

avatar

Δημοσίευση Την / Το Τετ Μαρ 30, 2016 6:52 pm από Jimis Wolf

Θενξ

Δημοσίευση Την / Το Σαβ Απρ 16, 2016 6:15 pm από panagiotis94

avatar

Δημοσίευση Την / Το Σαβ Ιουλ 09, 2016 10:59 am από Jimis10

Thnks

avatar

Δημοσίευση Την / Το Σαβ Αυγ 13, 2016 2:17 am από Andria<3

teleio!!! <3 <3 <3

avatar

Δημοσίευση Την / Το Σαβ Αυγ 13, 2016 3:01 pm από Tsaklas

Απαγορεύονται τα greeklish.

avatar

Δημοσίευση Την / Το Παρ Αυγ 26, 2016 6:42 pm από Alexch27

τελειο Very Happy

avatar

Δημοσίευση Την / Το Παρ Δεκ 30, 2016 12:35 pm από teliosmetonma

ty

avatar

Δημοσίευση Την / Το Κυρ Μαρ 19, 2017 5:35 pm από martha35

Επισκόπηση προηγούμενης Θ.Ενότητας Επισκόπηση επόμενης Θ.Ενότητας Επιστροφή στην κορυφή Μήνυμα [Σελίδα 1 από 2]

Μετάβαση στη σελίδα : 1, 2  Επόμενο

Δικαιώματα σας στην κατηγορία αυτή
Δεν μπορείτε να απαντήσετε στα Θέματα αυτής της Δ.Συζήτησης