Teen Spirit

Ένα φόρουμ αποκλειστικά για νεανικές σειρές στα ελληνικά!


Μη Συνδεδεμενος Παρακαλώ συνδεθείτε ή εγγραφείτε

[MEGA] Friends DVDRip (1994-2004)

Επισκόπηση προηγούμενης Θ.Ενότητας Επισκόπηση επόμενης Θ.Ενότητας Πήγαινε κάτω Μήνυμα [Σελίδα 1 από 1]

avatar

teliosmetonma


Ultra Member
Ultra Member
http://yugiohgr.forumgreek.com/

Άδεια sitcom σειράς by Tsaklas



ΧΑΡΑΚΤΗΡΙΣΤΙΚΑ ΕΠΕΙΣΟΔΙΩΝ:
General
Complete name                  : C:\Users\Eleni\Pictures\gx greek\nickn\uploads\friends\s1\Friends S01E01.mp4
Format                         : MPEG-4
Format profile                 : Base Media
Codec ID                       : isom
File size                      : 118 MiB
Duration                       : 29mn 39s
Overall bit rate mode          : Variable
Overall bit rate               : 558 Kbps
Encoded date                   : UTC 2013-08-01 12:10:52
Tagged date                    : UTC 2013-08-01 12:10:52

Video
ID                             : 1
Format                         : AVC
Format/Info                    : Advanced Video Codec
Format profile                 : High@L3
Format settings, CABAC         : Yes
Format settings, ReFrames      : 5 frames
Codec ID                       : avc1
Codec ID/Info                  : Advanced Video Coding
Duration                       : 29mn 38s
Bit rate                       : 514 Kbps
Maximum bit rate               : 2 214 Kbps
Width                          : 640 pixels
Height                         : 480 pixels
Display aspect ratio           : 4:3
Frame rate mode                : Constant
Frame rate                     : 30.000 fps
Color space                    : YUV
Chroma subsampling             : 4:2:0
Bit depth                      : 8 bits
Scan type                      : Progressive
Bits/(Pixel*Frame)             : 0.056
Stream size                    : 109 MiB (92%)
Title                          : /var/www/cgi-bin/uploads/01/00383/hobcu8l4mxln.h264 - Imported with GPAC 0.4.6-DEV (internal rev.
Writing library                : x264 core 118
Encoding settings              : cabac=1 / ref=5 / deblock=1:0:0 / analyse=0x3:0x113 / me=umh / subme=8 / psy=1 / psy_rd=1.00:0.00 / mixed_ref=1 / me_range=16 / chroma_me=1 / trellis=1 / 8x8dct=1 / cqm=0 / deadzone=21,11 / fast_pskip=1 / chroma_qp_offset=-2 / threads=12 / sliced_threads=0 / nr=0 / decimate=1 / interlaced=0 / bluray_compat=0 / constrained_intra=0 / bframes=3 / b_pyramid=2 / b_adapt=2 / b_bias=0 / direct=3 / weightb=1 / open_gop=0 / weightp=2 / keyint=250 / keyint_min=25 / scenecut=40 / intra_refresh=0 / rc_lookahead=50 / rc=crf / mbtree=1 / crf=24.0 / qcomp=0.60 / qpmin=0 / qpmax=69 / qpstep=4 / ip_ratio=1.40 / aq=1:1.00
Encoded date                   : UTC 2013-08-01 12:10:52
Tagged date                    : UTC 2013-08-01 12:10:53

Audio
ID                             : 2
Format                         : AAC
Format/Info                    : Advanced Audio Codec
Format profile                 : HE-AAC / LC
Codec ID                       : 40
Duration                       : 29mn 39s
Bit rate mode                  : Variable
Bit rate                       : 41.2 Kbps
Maximum bit rate               : 46.2 Kbps
Channel(s)                     : 1 channel
Channel positions              : Front: C
Sampling rate                  : 44.1 KHz / 22.05 KHz
Compression mode               : Lossy
Stream size                    : 8.75 MiB (7%)
Encoded date                   : UTC 2013-08-01 12:10:53
Tagged date                    : UTC 2013-08-01 12:10:53
THUMBNAILS:

Για να δείτε τα λινκς πείτε ευχαριστώ.

Season 1:

Season 2:

Μοιραστείτε αυτή τη δημοσίευση στο:Excite BookmarksDiggRedditDel.icio.usGoogleLiveSlashdotNetscapeTechnoratiStumbleUponNewsvineFurlYahooSmarking

avatar

Δημοσίευση Την / Το Κυρ Σεπ 03, 2017 1:34 am από Jimis10

Ευχαριστω πολυυυυυυ

avatar

Δημοσίευση Την / Το Κυρ Σεπ 03, 2017 1:23 pm από AUSTIN B.

thx

avatar

Δημοσίευση Την / Το Κυρ Σεπ 03, 2017 2:57 pm από savvas

thanks

Δημοσίευση Την / Το Κυρ Οκτ 01, 2017 7:30 am από TB87

ευχαριστω!

Δημοσίευση Την / Το Κυρ Οκτ 01, 2017 7:31 am από TB87

ευχαριστω!

Επισκόπηση προηγούμενης Θ.Ενότητας Επισκόπηση επόμενης Θ.Ενότητας Επιστροφή στην κορυφή Μήνυμα [Σελίδα 1 από 1]

Δικαιώματα σας στην κατηγορία αυτή
Δεν μπορείτε να απαντήσετε στα Θέματα αυτής της Δ.Συζήτησης