Teen Spirit

Ένα φόρουμ αποκλειστικά για νεανικές σειρές στα ελληνικά!


Μη Συνδεδεμενος Παρακαλώ συνδεθείτε ή εγγραφείτε

[MEGA] 100 thing to do before high school DTVRip (2014-2016)

Επισκόπηση προηγούμενης Θ.Ενότητας Επισκόπηση επόμενης Θ.Ενότητας Πήγαινε κάτω Μήνυμα [Σελίδα 1 από 1]

avatar

teliosmetonma


Ultra Member
Ultra Member
http://yugiohgr.forumgreek.com/



Για την 12χρονη CJ Martin, το λύκειο περιλαμβάνει πάρτι, σχολικούς χορούς, έρωτες και γενικά πολύ διασκέδαση.
Όμως όταν ο μεγάλος της αδερφός, Ronbie, την ενημερώνει για το τι πραγματικά συμβαίνει – άπειρες εργασίες, πολύ διάβασμα και φιλίες που ίσως να μην είναι όσο γερές νομίζεις - αποφασίζει να περάσει τις τελευταίες τις χρονιές περνώντας τέλεια. Είναι αποφασισμένη να διατηρήσει τη φιλία της με τους δύο κολλητούς της, τον Fenwick και τον Crispo, ζώντας την κάθε στιγμή στο έπακρο, έχοντας σαν οδηγό μια λίστα με πράγματα που πρέπει να κάνουν, όσο ακόμα μπορούν.

ΠΛΗΡΟΦΟΡΙΕΣ:
General
Complete name                  : C:\Users\Eleni\Pictures\gx greek\nickn\uploads\tvrips\100 things to do before high school S01E07.mp4
Format                         : MPEG-4
Format profile                 : Base Media / Version 2
Codec ID                       : mp42
File size                      : 300 MiB
Duration                       : 22mn 30s
Overall bit rate mode          : Variable
Overall bit rate               : 1 862 Kbps
Encoded date                   : UTC 2017-09-25 15:53:05
Tagged date                    : UTC 2017-09-25 16:26:33
Writing application            : HandBrake 0.9.8 2012071700

Video
ID                             : 1
Format                         : AVC
Format/Info                    : Advanced Video Codec
Format profile                 : Main@L3
Format settings, CABAC         : Yes
Format settings, ReFrames      : 4 frames
Codec ID                       : avc1
Codec ID/Info                  : Advanced Video Coding
Duration                       : 22mn 30s
Bit rate                       : 1 697 Kbps
Width                          : 720 pixels
Height                         : 576 pixels
Display aspect ratio           : 16:9
Frame rate mode                : Variable
Frame rate                     : 25.000 fps
Minimum frame rate             : 7.190 fps
Maximum frame rate             : 35.294 fps
Standard                       : PAL
Color space                    : YUV
Chroma subsampling             : 4:2:0
Bit depth                      : 8 bits
Scan type                      : Progressive
Bits/(Pixel*Frame)             : 0.164
Stream size                    : 273 MiB (91%)
Writing library                : x264 core 120
Encoding settings              : cabac=1 / ref=1 / deblock=1:0:0 / analyse=0x1:0x111 / me=hex / subme=2 / psy=1 / psy_rd=1.00:0.00 / mixed_ref=0 / me_range=16 / chroma_me=1 / trellis=0 / 8x8dct=0 / cqm=0 / deadzone=21,11 / fast_pskip=1 / chroma_qp_offset=0 / threads=3 / sliced_threads=0 / nr=0 / decimate=1 / interlaced=0 / bluray_compat=0 / constrained_intra=0 / bframes=3 / b_pyramid=2 / b_adapt=1 / b_bias=0 / direct=1 / weightb=1 / open_gop=0 / weightp=1 / keyint=250 / keyint_min=25 / scenecut=40 / intra_refresh=0 / rc_lookahead=10 / rc=crf / mbtree=1 / crf=20.0 / qcomp=0.60 / qpmin=3 / qpmax=69 / qpstep=4 / ip_ratio=1.40 / aq=1:1.00
Encoded date                   : UTC 2017-09-25 15:53:05
Tagged date                    : UTC 2017-09-25 16:26:33
Color range                    : Limited
Color primaries                : BT.601 NTSC
Transfer characteristics       : BT.709
Matrix coefficients            : BT.601

Audio
ID                             : 2
Format                         : AAC
Format/Info                    : Advanced Audio Codec
Format profile                 : LC
Codec ID                       : 40
Duration                       : 22mn 30s
Bit rate mode                  : Variable
Bit rate                       : 160 Kbps
Maximum bit rate               : 207 Kbps
Channel(s)                     : 2 channels
Channel positions              : Front: L R
Sampling rate                  : 48.0 KHz
Compression mode               : Lossy
Stream size                    : 25.7 MiB (9%)
Title                          : Stereo
Language                       : Greek
Encoded date                   : UTC 2017-09-25 15:53:05
Tagged date                    : UTC 2017-09-25 16:26:33

THUMBNAILS:

S01E08: 

S01E09: 

S01E12: 

S01E25: 

Για να δείτε τα λινκ πείτε ευχαριστώ!  cheers


~Δικό μου ριπ~



Έχει επεξεργασθεί από τον/την teliosmetonma στις Σαβ Σεπ 30, 2017 9:43 am, 2 φορές συνολικά

Μοιραστείτε αυτή τη δημοσίευση στο:Excite BookmarksDiggRedditDel.icio.usGoogleLiveSlashdotNetscapeTechnoratiStumbleUponNewsvineFurlYahooSmarking

avatar

Δημοσίευση Την / Το Τρι Σεπ 26, 2017 8:34 pm από Jimis10

Ευχαριστωωωωωω

avatar

Δημοσίευση Την / Το Τετ Σεπ 27, 2017 2:48 pm από teliosmetonma

Προστέθηκε το S01E09!

Δημοσίευση Την / Το Τετ Σεπ 27, 2017 7:26 pm από SD2

Thanks

avatar

Δημοσίευση Την / Το Τετ Σεπ 27, 2017 11:27 pm από lef0

Ευχαριστουμε! Very Happy

avatar

Δημοσίευση Την / Το Σαβ Σεπ 30, 2017 9:44 am από teliosmetonma

+Προστέθηκαν τα S01E12, S01E25!

Δημοσίευση Την / Το Κυρ Οκτ 01, 2017 7:17 am από TB87

ευχαριστω!

avatar

Δημοσίευση Την / Το Δευ Οκτ 02, 2017 9:24 pm από wicked

Thanks

Δημοσίευση Την / Το Παρ Οκτ 13, 2017 5:47 pm από panagiotis94

Επισκόπηση προηγούμενης Θ.Ενότητας Επισκόπηση επόμενης Θ.Ενότητας Επιστροφή στην κορυφή Μήνυμα [Σελίδα 1 από 1]

Δικαιώματα σας στην κατηγορία αυτή
Δεν μπορείτε να απαντήσετε στα Θέματα αυτής της Δ.Συζήτησης