Teen Spirit

Ένα φόρουμ αποκλειστικά για νεανικές σειρές στα ελληνικά!


Μη Συνδεδεμενος Παρακαλώ συνδεθείτε ή εγγραφείτε

[MEGA] Maggie & Bianca DTVRip (2016-)

Μετάβαση στη σελίδα : Επιστροφή  1, 2

Επισκόπηση προηγούμενης Θ.Ενότητας Επισκόπηση επόμενης Θ.Ενότητας Πήγαινε κάτω Μήνυμα [Σελίδα 2 από 2]

avatar

teliosmetonma


Ultra Member
Ultra Member
http://www.yugioh.gr





H Maggie είναι ένα κορίτσι από την Αμερική που κέρδισε μια υποτροφία στην Ακαδημία Μόδας του Μιλάνο, σε μια από τις καλύτερες σχολές μόδας του κόσμου. Ένα όνειρο βγήκε αληθινό-έχει βάλει στόχο να γίνει διάσημη σχεδιάστρια μόδας.

Η Bianca είναι η κόρη ενός πανίσχυρου Ιταλού επιχειρηματία που δραστηριοποιείται στην βιομηχανία της μόδας. Το μέλλον της είναι προκαθορισμένο, πρέπει να αναλάβει την οικογενειακή επιχείρηση. Η Bianca πρόκειται να μπει στην Ακαδημία Μόδας και να αφήσει πίσω το πραγματικό της όνειρο, την μουσική.

Τα δύο κορίτσια θα συναντηθούν στην Ακαδημία Μόδας όπου τους περιμένει ένα δύσκολο ξεκίνημα. Προέρχονται από εντελώς διαφορετικούς κόσμους και έχουν αντίθετες προσωπικότητες. Θα καταφέρουν να ταιριάξουν μεταξύ τους;

ΠΛΗΡΟΦΟΡΙΕΣ:
General
Complete name                  : C:\Users\Eleni\Pictures\gx greek\nickn\uploads\tvrips\Maggie & Bianca e5.mp4
Format                         : MPEG-4
Format profile                 : Base Media / Version 2
Codec ID                       : mp42
File size                      : 296 MiB
Duration                       : 24mn 12s
Overall bit rate mode          : Variable
Overall bit rate               : 1 708 Kbps
Encoded date                   : UTC 2017-09-26 04:15:43
Tagged date                    : UTC 2017-09-26 04:54:06
Writing application            : HandBrake 0.9.8 2012071700

Video
ID                             : 1
Format                         : AVC
Format/Info                    : Advanced Video Codec
Format profile                 : Main@L3
Format settings, CABAC         : Yes
Format settings, ReFrames      : 4 frames
Codec ID                       : avc1
Codec ID/Info                  : Advanced Video Coding
Duration                       : 24mn 12s
Bit rate                       : 1 543 Kbps
Width                          : 720 pixels
Height                         : 576 pixels
Display aspect ratio           : 16:9
Frame rate mode                : Variable
Frame rate                     : 25.000 fps
Minimum frame rate             : 25.000 fps
Maximum frame rate             : 25.007 fps
Standard                       : PAL
Color space                    : YUV
Chroma subsampling             : 4:2:0
Bit depth                      : 8 bits
Scan type                      : Progressive
Bits/(Pixel*Frame)             : 0.149
Stream size                    : 267 MiB (90%)
Writing library                : x264 core 120
Encoding settings              : cabac=1 / ref=1 / deblock=1:0:0 / analyse=0x1:0x111 / me=hex / subme=2 / psy=1 / psy_rd=1.00:0.00 / mixed_ref=0 / me_range=16 / chroma_me=1 / trellis=0 / 8x8dct=0 / cqm=0 / deadzone=21,11 / fast_pskip=1 / chroma_qp_offset=0 / threads=3 / sliced_threads=0 / nr=0 / decimate=1 / interlaced=0 / bluray_compat=0 / constrained_intra=0 / bframes=3 / b_pyramid=2 / b_adapt=1 / b_bias=0 / direct=1 / weightb=1 / open_gop=0 / weightp=1 / keyint=250 / keyint_min=25 / scenecut=40 / intra_refresh=0 / rc_lookahead=10 / rc=crf / mbtree=1 / crf=20.0 / qcomp=0.60 / qpmin=3 / qpmax=69 / qpstep=4 / ip_ratio=1.40 / aq=1:1.00
Encoded date                   : UTC 2017-09-26 04:15:43
Tagged date                    : UTC 2017-09-26 04:54:06
Color range                    : Limited
Color primaries                : BT.601 NTSC
Transfer characteristics       : BT.709
Matrix coefficients            : BT.601

Audio
ID                             : 2
Format                         : AAC
Format/Info                    : Advanced Audio Codec
Format profile                 : LC
Codec ID                       : 40
Duration                       : 24mn 10s
Bit rate mode                  : Variable
Bit rate                       : 160 Kbps
Maximum bit rate               : 195 Kbps
Channel(s)                     : 2 channels
Channel positions              : Front: L R
Sampling rate                  : 48.0 KHz
Compression mode               : Lossy
Stream size                    : 27.7 MiB (9%)
Title                          : Stereo
Language                       : Greek
Encoded date                   : UTC 2017-09-26 04:15:43
Tagged date                    : UTC 2017-09-26 04:54:06

THUMBNAILS:

S01E05: 

S01E06: 

S01E16: 

S01E20: 



S02E02: 

S02E05: 

S02E11: 

S02E20: 

S02E21: 


S01E19 σε HD Από E-Kay: 

S01E20 σε HD Από E-Kay

S01E21 σε HD Από E-Kay: 

S02E01 σε HD Από E-Kay: 




Για να δείτε τα λινκ πείτε ευχαριστώ!  cheers



Έχει επεξεργασθεί από τον/την teliosmetonma στις Παρ Σεπ 14, 2018 1:52 pm, 9 φορές συνολικά

Μοιραστείτε αυτή τη δημοσίευση στο:diggdeliciousredditstumbleuponslashdotyahoogooglelive

avatar

Δημοσίευση Την / Το Πεμ Μαρ 08, 2018 4:20 pm από fevi

ευχαριστω

avatar

Δημοσίευση Την / Το Σαβ Μαρ 24, 2018 7:21 pm από evstav

Ty

avatar

Δημοσίευση Την / Το Τετ Μαρ 28, 2018 10:58 am από MPOYGATSAS12

teleia

avatar

Δημοσίευση Την / Το Σαβ Μαρ 31, 2018 10:07 am από oom34

thanks

avatar

Δημοσίευση Την / Το Σαβ Απρ 07, 2018 5:04 am από kitty

avatar

Δημοσίευση Την / Το Τρι Απρ 10, 2018 4:07 pm από george100

Ευχαριστώ!

avatar

Δημοσίευση Την / Το Πεμ Απρ 12, 2018 4:05 am από DescendantsGR

Ty

avatar

Δημοσίευση Την / Το Σαβ Μάης 05, 2018 12:21 am από dimitrisegkomit

thanks

avatar

Δημοσίευση Την / Το Τετ Ιουλ 18, 2018 5:19 pm από takis123

OK

avatar

Δημοσίευση Την / Το Τρι Ιουλ 31, 2018 9:26 am από Madalena

Ευχαριστώ πολύ!!!

avatar

Δημοσίευση Την / Το Παρ Σεπ 14, 2018 1:52 pm από teliosmetonma

+Προστέθηκε το S02E01 από [Πρέπει να είστε εγγεγραμμένοι και συνδεδεμένοι για να δείτε αυτόν το σύνδεσμο.]!

avatar

Δημοσίευση Την / Το Τρι Σεπ 18, 2018 10:09 pm από marakilovaki

Ευχαριστουμε

Επισκόπηση προηγούμενης Θ.Ενότητας Επισκόπηση επόμενης Θ.Ενότητας Επιστροφή στην κορυφή Μήνυμα [Σελίδα 2 από 2]

Μετάβαση στη σελίδα : Επιστροφή  1, 2

Δικαιώματα σας στην κατηγορία αυτή
Δεν μπορείτε να απαντήσετε στα Θέματα αυτής της Δ.Συζήτησης