Teen Spirit

Ένα φόρουμ αποκλειστικά για νεανικές σειρές στα ελληνικά!


Μη Συνδεδεμενος Παρακαλώ συνδεθείτε ή εγγραφείτε

[MEGA] The Haunted Hathaways DTVRip (2013-2015)

Επισκόπηση προηγούμενης Θ.Ενότητας Επισκόπηση επόμενης Θ.Ενότητας Πήγαινε κάτω Μήνυμα [Σελίδα 1 από 1]

avatar

teliosmetonma


Ultra Member
Ultra Member
http://yugiohgr.forumgreek.com/



Η Μισέλ Χάθαγουεϊ και οι δύο της κόρες, η Τέιλορ και η Φράνκι, μετακομίζουν στη Νέα Ορλεάνη όπου θα ανακαλύψουν ότι το νέο τους σπίτι είναι ήδη κατειλημμένο από έναν μπαμπά και τους γιους του... που τυχαίνει να είναι φαντάσματα. Αυτές οι δύο οικογένειες, που στην κυριολεξία είναι από δύο διαφορετικούς κόσμους, θα προσπαθήσουν να ζήσουν μαζί αρμονικά, χωρίς η μία να οδηγήσει την άλλη στην τρέλα…

Ξεκίνησα να γραφω τους hathaways! Εαν καποιος εχει ανεβασει επεισόδια ας μου στειλει pm


Εαν λείπουν απτην αρχή κανα 2 λεπτά συγχωρέστε με γιατί όλοι ξερουμε πως όταν τελειώνει μια σειρά στο Nickelodeon και συνεχίζει κι αλλο επεισόδιο από την ιδια σειρά δεν βαζει διαφημίσεις  bounce Sad
ΠΛΗΡΟΦΟΡΙΕΣ:
General
Complete name                  : C:\Users\Eleni\Pictures\gx greek\nickn\uploads\tvrips\The Haunted Hathaways S01E01.mp4
Format                         : MPEG-4
Format profile                 : Base Media / Version 2
Codec ID                       : mp42
File size                      : 225 MiB
Duration                       : 19mn 40s
Overall bit rate mode          : Variable
Overall bit rate               : 1 603 Kbps
Encoded date                   : UTC 2017-09-25 14:03:11
Tagged date                    : UTC 2017-09-25 14:34:33
Writing application            : HandBrake 0.9.8 2012071700

Video
ID                             : 1
Format                         : AVC
Format/Info                    : Advanced Video Codec
Format profile                 : Main@L3
Format settings, CABAC         : Yes
Format settings, ReFrames      : 4 frames
Codec ID                       : avc1
Codec ID/Info                  : Advanced Video Coding
Duration                       : 19mn 40s
Bit rate                       : 1 438 Kbps
Width                          : 720 pixels
Height                         : 576 pixels
Display aspect ratio           : 16:9
Frame rate mode                : Variable
Frame rate                     : 25.000 fps
Minimum frame rate             : 7.190 fps
Maximum frame rate             : 25.431 fps
Standard                       : PAL
Color space                    : YUV
Chroma subsampling             : 4:2:0
Bit depth                      : 8 bits
Scan type                      : Progressive
Bits/(Pixel*Frame)             : 0.139
Stream size                    : 202 MiB (90%)
Writing library                : x264 core 120
Encoding settings              : cabac=1 / ref=1 / deblock=1:0:0 / analyse=0x1:0x111 / me=hex / subme=2 / psy=1 / psy_rd=1.00:0.00 / mixed_ref=0 / me_range=16 / chroma_me=1 / trellis=0 / 8x8dct=0 / cqm=0 / deadzone=21,11 / fast_pskip=1 / chroma_qp_offset=0 / threads=3 / sliced_threads=0 / nr=0 / decimate=1 / interlaced=0 / bluray_compat=0 / constrained_intra=0 / bframes=3 / b_pyramid=2 / b_adapt=1 / b_bias=0 / direct=1 / weightb=1 / open_gop=0 / weightp=1 / keyint=250 / keyint_min=25 / scenecut=40 / intra_refresh=0 / rc_lookahead=10 / rc=crf / mbtree=1 / crf=20.0 / qcomp=0.60 / qpmin=3 / qpmax=69 / qpstep=4 / ip_ratio=1.40 / aq=1:1.00
Encoded date                   : UTC 2017-09-25 14:03:11
Tagged date                    : UTC 2017-09-25 14:34:33
Color range                    : Limited
Color primaries                : BT.601 NTSC
Transfer characteristics       : BT.709
Matrix coefficients            : BT.601

Audio
ID                             : 2
Format                         : AAC
Format/Info                    : Advanced Audio Codec
Format profile                 : LC
Codec ID                       : 40
Duration                       : 19mn 40s
Bit rate mode                  : Variable
Bit rate                       : 160 Kbps
Maximum bit rate               : 201 Kbps
Channel(s)                     : 2 channels
Channel positions              : Front: L R
Sampling rate                  : 48.0 KHz
Compression mode               : Lossy
Stream size                    : 22.5 MiB (10%)
Title                          : Stereo
Language                       : Greek
Encoded date                   : UTC 2017-09-25 14:03:11
Tagged date                    : UTC 2017-09-25 14:34:33

THUMBNAILS:
Season 1:

Μοιραστείτε αυτή τη δημοσίευση στο:Excite BookmarksDiggRedditDel.icio.usGoogleLiveSlashdotNetscapeTechnoratiStumbleUponNewsvineFurlYahooSmarking

avatar

Δημοσίευση Την / Το Σαβ Οκτ 07, 2017 12:29 pm από Jimis10

ΕΥΧΑΡΙΣΤΩΩΩΩΩΩΩ θα βαλεις και την δευτερη σεζον ;

avatar

Δημοσίευση Την / Το Κυρ Οκτ 08, 2017 12:53 am από teliosmetonma

προσπαθω Wink

Δημοσίευση Την / Το Παρ Οκτ 13, 2017 5:47 pm από panagiotis94

Επισκόπηση προηγούμενης Θ.Ενότητας Επισκόπηση επόμενης Θ.Ενότητας Επιστροφή στην κορυφή Μήνυμα [Σελίδα 1 από 1]

Δικαιώματα σας στην κατηγορία αυτή
Δεν μπορείτε να απαντήσετε στα Θέματα αυτής της Δ.Συζήτησης