Teen Spirit

Ένα φόρουμ αποκλειστικά για νεανικές σειρές στα ελληνικά!


Μη Συνδεδεμενος Παρακαλώ συνδεθείτε ή εγγραφείτε

[MEGA] Lost in the West DTVRip (2016)

Επισκόπηση προηγούμενης Θ.Ενότητας Επισκόπηση επόμενης Θ.Ενότητας Πήγαινε κάτω Μήνυμα [Σελίδα 1 από 1]

avatar

teliosmetonma


Ultra Member
Ultra Member
http://yugiohgr.forumgreek.com/



ΠΛΗΡΟΦΟΡΙΕΣ:
General
Complete name                  : C:\Users\Eleni\Pictures\gx greek\nickn\uploads\tvrips\Lost in the west part 1.mp4
Format                         : MPEG-4
Format profile                 : Base Media / Version 2
Codec ID                       : mp42
File size                      : 353 MiB
Duration                       : 18mn 49s
Overall bit rate mode          : Variable
Overall bit rate               : 2 623 Kbps
Encoded date                   : UTC 2017-10-05 13:03:24
Tagged date                    : UTC 2017-10-05 13:33:09
Writing application            : HandBrake 0.9.8 2012071700

Video
ID                             : 1
Format                         : AVC
Format/Info                    : Advanced Video Codec
Format profile                 : Main@L3
Format settings, CABAC         : Yes
Format settings, ReFrames      : 4 frames
Codec ID                       : avc1
Codec ID/Info                  : Advanced Video Coding
Duration                       : 18mn 49s
Bit rate                       : 2 459 Kbps
Width                          : 720 pixels
Height                         : 576 pixels
Display aspect ratio           : 16:9
Frame rate mode                : Variable
Frame rate                     : 25.000 fps
Minimum frame rate             : 24.993 fps
Maximum frame rate             : 25.007 fps
Standard                       : PAL
Color space                    : YUV
Chroma subsampling             : 4:2:0
Bit depth                      : 8 bits
Scan type                      : Progressive
Bits/(Pixel*Frame)             : 0.237
Stream size                    : 331 MiB (94%)
Writing library                : x264 core 120
Encoding settings              : cabac=1 / ref=1 / deblock=1:0:0 / analyse=0x1:0x111 / me=hex / subme=2 / psy=1 / psy_rd=1.00:0.00 / mixed_ref=0 / me_range=16 / chroma_me=1 / trellis=0 / 8x8dct=0 / cqm=0 / deadzone=21,11 / fast_pskip=1 / chroma_qp_offset=0 / threads=3 / sliced_threads=0 / nr=0 / decimate=1 / interlaced=0 / bluray_compat=0 / constrained_intra=0 / bframes=3 / b_pyramid=2 / b_adapt=1 / b_bias=0 / direct=1 / weightb=1 / open_gop=0 / weightp=1 / keyint=250 / keyint_min=25 / scenecut=40 / intra_refresh=0 / rc_lookahead=10 / rc=crf / mbtree=1 / crf=20.0 / qcomp=0.60 / qpmin=3 / qpmax=69 / qpstep=4 / ip_ratio=1.40 / aq=1:1.00
Encoded date                   : UTC 2017-10-05 13:03:24
Tagged date                    : UTC 2017-10-05 13:33:09
Color range                    : Limited
Color primaries                : BT.601 NTSC
Transfer characteristics       : BT.709
Matrix coefficients            : BT.601

Audio
ID                             : 2
Format                         : AAC
Format/Info                    : Advanced Audio Codec
Format profile                 : LC
Codec ID                       : 40
Duration                       : 18mn 49s
Bit rate mode                  : Variable
Bit rate                       : 160 Kbps
Maximum bit rate               : 233 Kbps
Channel(s)                     : 2 channels
Channel positions              : Front: L R
Sampling rate                  : 48.0 KHz
Compression mode               : Lossy
Stream size                    : 21.5 MiB (6%)
Title                          : Stereo
Language                       : Greek
Encoded date                   : UTC 2017-10-05 13:03:24
Tagged date                    : UTC 2017-10-05 13:33:09

THUMBNAILS:
η ταινια αποτελείται από 3 "επεισόδια"

1ο Επεισόδιο: 

2ο Επεισόδιο από jeezus:

Για να δέιτε τα λινκ πείτε ευχαριστώ  Very Happy



Έχει επεξεργασθεί από τον/την teliosmetonma στις Δευ Οκτ 23, 2017 6:07 pm, 1 φορά

Μοιραστείτε αυτή τη δημοσίευση στο:Excite BookmarksDiggRedditDel.icio.usGoogleLiveSlashdotNetscapeTechnoratiStumbleUponNewsvineFurlYahooSmarking

avatar

Δημοσίευση Την / Το Δευ Οκτ 23, 2017 4:49 pm από jeezus

Σκόπευα να κάνω εγώ το τοπικ για αυτην την ταινία αλλά το nickelodeon παραπληγιζόταν αυτές τις μέρες, ακόμα και τώρα παραπληγίζετε εγώ πάντως έχω το part b Smile Smile
[Πρέπει να είστε εγγεγραμμένοι και συνδεδεμένοι για να δείτε αυτόν το σύνδεσμο.]
[Πρέπει να είστε εγγεγραμμένοι και συνδεδεμένοι για να δείτε αυτόν το σύνδεσμο.]

avatar

Δημοσίευση Την / Το Δευ Οκτ 23, 2017 6:07 pm από teliosmetonma

ευχαριστούμε πολυ! Απλα να ξερεις πως το mega ειναι πιο ευκολη λυση Wink

avatar

Δημοσίευση Την / Το Δευ Οκτ 23, 2017 8:57 pm από jeezus

το mega είναι περιορισμένο στα 50gb ενω το userscloud δεν εχει, το μόνο μείον που έχει είναι τα αρχειά πάνω απο 500mb μένουν για έναν μήνα, έχω βρει και το dir50.com 100gb free space :y

avatar

Δημοσίευση Την / Το Δευ Οκτ 23, 2017 9:57 pm από teliosmetonma

ναι αλλα το mega εχει ευκολο downloading. Τους downloaders δεν τους σκεφτεσαι?

avatar

Δημοσίευση Την / Το Δευ Οκτ 23, 2017 11:37 pm από jeezus

Για μένα όλα το ίδιο είναι εκτός αν η σελίδα έχει ads.

avatar

Δημοσίευση Την / Το Τρι Οκτ 24, 2017 8:47 am από teliosmetonma

το usersclouds δεν εχει ads???

Παντως το mega δεν εχει αλλα δεν ειναι αυτο το θεμα. Το θεμα ειναι να υπάρχει ενα ευκολο κατεβασμα και θα το κανω και σε αυτό αλλα και στα επεισόδια των thundermans season 2-3 που ανεβασες reupload σε mega... και πιστεψε με τα clouds με τον "απειρο" χωρο κανουν πολυ συχνα νεκρα λινκς. Καποτε ανεβαζα σε userclouds, zippyshare και turbobit αλλα εμαθα πως ειναι βλακεια και ανεβαζω μονο mega, mediafire και καμια φορα 4shared

Δημοσίευση Την / Το Δευ Νοε 06, 2017 6:49 am από TB87

ευχαριστω

Δημοσίευση Την / Το Δευ Νοε 20, 2017 7:28 am από TB87

μια ανανεωση τα λινκ στο επεισοδιο 2

ευχαριστω!

avatar

Δημοσίευση Την / Το Δευ Νοε 20, 2017 1:44 pm από teliosmetonma

λυπάμαι αλλα το επεισόδιο 2 ανήκει στον jeezus, Μονο αν το ξανανεβασει...

Επισκόπηση προηγούμενης Θ.Ενότητας Επισκόπηση επόμενης Θ.Ενότητας Επιστροφή στην κορυφή Μήνυμα [Σελίδα 1 από 1]

Δικαιώματα σας στην κατηγορία αυτή
Δεν μπορείτε να απαντήσετε στα Θέματα αυτής της Δ.Συζήτησης