Teen Spirit

Ένα φόρουμ αποκλειστικά για νεανικές σειρές στα ελληνικά!


Μη Συνδεδεμενος Παρακαλώ συνδεθείτε ή εγγραφείτε

[MEGA] Lip Sync Battle Shorties DTVRip (2016-)

Επισκόπηση προηγούμενης Θ.Ενότητας Επισκόπηση επόμενης Θ.Ενότητας Πήγαινε κάτω Μήνυμα [Σελίδα 1 από 1]

avatar

teliosmetonma


Ultra Member
Ultra Member
http://www.yugioh.gr



INFO:
General
Complete name                  : C:\Users\Eleni\Pictures\uploads\Lip Sync Battles Shorties (Christmas Special).mp4
Format                         : MPEG-4
Format profile                 : Base Media / Version 2
Codec ID                       : mp42
File size                      : 363 MiB
Duration                       : 22mn 45s
Overall bit rate mode          : Variable
Overall bit rate               : 2 234 Kbps
Encoded date                   : UTC 2018-01-08 16:17:14
Tagged date                    : UTC 2018-01-08 16:17:14
Writing application            : HandBrake 1.0.7 2017040900

Video
ID                             : 1
Format                         : AVC
Format/Info                    : Advanced Video Codec
Format profile                 : Main@L3.1
Format settings, CABAC         : Yes
Format settings, ReFrames      : 4 frames
Codec ID                       : avc1
Codec ID/Info                  : Advanced Video Coding
Duration                       : 22mn 45s
Bit rate                       : 2 068 Kbps
Width                          : 720 pixels
Height                         : 576 pixels
Display aspect ratio           : 16:9
Frame rate mode                : Variable
Frame rate                     : 25.000 fps
Minimum frame rate             : 12.500 fps
Maximum frame rate             : 25.000 fps
Standard                       : PAL
Color space                    : YUV
Chroma subsampling             : 4:2:0
Bit depth                      : 8 bits
Scan type                      : Progressive
Bits/(Pixel*Frame)             : 0.199
Stream size                    : 336 MiB (93%)
Writing library                : x264 core 148 r2708 86b7198
Encoding settings              : cabac=1 / ref=1 / deblock=1:0:0 / analyse=0x1:0x111 / me=hex / subme=2 / psy=1 / psy_rd=1.00:0.00 / mixed_ref=0 / me_range=16 / chroma_me=1 / trellis=0 / 8x8dct=0 / cqm=0 / deadzone=21,11 / fast_pskip=1 / chroma_qp_offset=0 / threads=6 / lookahead_threads=2 / sliced_threads=0 / nr=0 / decimate=1 / interlaced=0 / bluray_compat=0 / constrained_intra=0 / bframes=3 / b_pyramid=2 / b_adapt=1 / b_bias=0 / direct=1 / weightb=1 / open_gop=0 / weightp=1 / keyint=250 / keyint_min=25 / scenecut=40 / intra_refresh=0 / rc_lookahead=10 / rc=crf / mbtree=1 / crf=23.0 / qcomp=0.60 / qpmin=0 / qpmax=69 / qpstep=4 / vbv_maxrate=14000 / vbv_bufsize=14000 / crf_max=0.0 / nal_hrd=none / filler=0 / ip_ratio=1.40 / aq=1:1.00
Encoded date                   : UTC 2018-01-08 16:17:14
Tagged date                    : UTC 2018-01-08 16:17:14
Color range                    : Limited
Color primaries                : BT.601 PAL
Transfer characteristics       : BT.709
Matrix coefficients            : BT.601

Audio
ID                             : 2
Format                         : AAC
Format/Info                    : Advanced Audio Codec
Format profile                 : LC
Codec ID                       : 40
Duration                       : 22mn 45s
Bit rate mode                  : Variable
Bit rate                       : 160 Kbps
Channel(s)                     : 2 channels
Channel positions              : Front: L R
Sampling rate                  : 48.0 KHz
Compression mode               : Lossy
Stream size                    : 26.1 MiB (7%)
Title                          : Stereo / Stereo
Language                       : Greek
Encoded date                   : UTC 2018-01-08 16:17:14
Tagged date                    : UTC 2018-01-08 16:17:14

THUMBNAILS:

Christmas Special: 

Για να δείτε τα links πείτε ευχαριστώ  Very Happy

Μοιραστείτε αυτή τη δημοσίευση στο:diggdeliciousredditstumbleuponslashdotyahoogooglelive

Δημοσίευση Την / Το Τετ Ιαν 17, 2018 6:07 am από TB87

ευχαριστω!

Επισκόπηση προηγούμενης Θ.Ενότητας Επισκόπηση επόμενης Θ.Ενότητας Επιστροφή στην κορυφή Μήνυμα [Σελίδα 1 από 1]

Δικαιώματα σας στην κατηγορία αυτή
Δεν μπορείτε να απαντήσετε στα Θέματα αυτής της Δ.Συζήτησης