Teen Spirit

Ένα φόρουμ αποκλειστικά για νεανικές σειρές στα ελληνικά!


Μη Συνδεδεμενος Παρακαλώ συνδεθείτε ή εγγραφείτε

[MEGA] School of Rock DTVRip (2016)

Επισκόπηση προηγούμενης Θ.Ενότητας Επισκόπηση επόμενης Θ.Ενότητας Πήγαινε κάτω Μήνυμα [Σελίδα 1 από 1]

avatar

teliosmetonma


Ultra Member
Ultra Member
http://www.yugioh.gr



Παιδιά δεν έχω βάλει αριθμούς επεισοδίων γιατί δεν πιστεύω πως χρειάζεται καθως είναι μια σειρά που με όποια σειρά κι αν την δεις θα την ευχαριστηθείς.  Smile

INFO:
General
Complete name                  : C:\Users\Eleni\Pictures\uploads\big\School.of.Rock.(1).mp4
Format                         : MPEG-4
Format profile                 : Base Media / Version 2
Codec ID                       : mp42
File size                      : 184 MiB
Duration                       : 22mn 31s
Overall bit rate mode          : Variable
Overall bit rate               : 1 140 Kbps
Encoded date                   : UTC 2018-01-20 08:09:12
Tagged date                    : UTC 2018-01-20 08:09:12
Writing application            : HandBrake 1.0.7 2017040900

Video
ID                             : 1
Format                         : AVC
Format/Info                    : Advanced Video Codec
Format profile                 : Main@L3.1
Format settings, CABAC         : Yes
Format settings, ReFrames      : 4 frames
Codec ID                       : avc1
Codec ID/Info                  : Advanced Video Coding
Duration                       : 22mn 31s
Bit rate                       : 974 Kbps
Width                          : 720 pixels
Height                         : 576 pixels
Display aspect ratio           : 16:9
Frame rate mode                : Constant
Frame rate                     : 25.000 fps
Standard                       : PAL
Color space                    : YUV
Chroma subsampling             : 4:2:0
Bit depth                      : 8 bits
Scan type                      : Progressive
Bits/(Pixel*Frame)             : 0.094
Stream size                    : 157 MiB (85%)
Writing library                : x264 core 148 r2708 86b7198
Encoding settings              : cabac=1 / ref=1 / deblock=1:0:0 / analyse=0x1:0x111 / me=hex / subme=2 / psy=1 / psy_rd=1.00:0.00 / mixed_ref=0 / me_range=16 / chroma_me=1 / trellis=0 / 8x8dct=0 / cqm=0 / deadzone=21,11 / fast_pskip=1 / chroma_qp_offset=0 / threads=6 / lookahead_threads=2 / sliced_threads=0 / nr=0 / decimate=1 / interlaced=0 / bluray_compat=0 / constrained_intra=0 / bframes=3 / b_pyramid=2 / b_adapt=1 / b_bias=0 / direct=1 / weightb=1 / open_gop=0 / weightp=1 / keyint=250 / keyint_min=25 / scenecut=40 / intra_refresh=0 / rc_lookahead=10 / rc=crf / mbtree=1 / crf=23.0 / qcomp=0.60 / qpmin=0 / qpmax=69 / qpstep=4 / vbv_maxrate=14000 / vbv_bufsize=14000 / crf_max=0.0 / nal_hrd=none / filler=0 / ip_ratio=1.40 / aq=1:1.00
Encoded date                   : UTC 2018-01-20 08:09:12
Tagged date                    : UTC 2018-01-20 08:09:12
Color range                    : Limited
Color primaries                : BT.601 PAL
Transfer characteristics       : BT.709
Matrix coefficients            : BT.601

Audio
ID                             : 2
Format                         : AAC
Format/Info                    : Advanced Audio Codec
Format profile                 : LC
Codec ID                       : 40
Duration                       : 22mn 31s
Bit rate mode                  : Variable
Bit rate                       : 160 Kbps
Channel(s)                     : 2 channels
Channel positions              : Front: L R
Sampling rate                  : 48.0 KHz
Compression mode               : Lossy
Stream size                    : 25.8 MiB (14%)
Title                          : Stereo / Stereo
Language                       : Greek
Encoded date                   : UTC 2018-01-20 08:09:12
Tagged date                    : UTC 2018-01-20 08:09:12

THUMBNAILS:

Σε αυτό το φάκελο θα προστίθονται θα επεισόδια:



S02E03 από nicksplat2:

Πείτε ευχαριστώ για να δείτε το λινκ του φακέλου  Wink



Έχει επεξεργασθεί από τον/την teliosmetonma στις Παρ Σεπ 14, 2018 1:53 pm, 1 φορά

Μοιραστείτε αυτή τη δημοσίευση στο:diggdeliciousredditstumbleuponslashdotyahoogooglelive

Δημοσίευση Την / Το Κυρ Ιαν 21, 2018 2:11 pm από panagiotis94

avatar

Δημοσίευση Την / Το Κυρ Ιαν 21, 2018 4:41 pm από marios121

ευχαριστώ

avatar

Δημοσίευση Την / Το Τρι Ιαν 23, 2018 4:02 pm από Jimis10

Ευχαριστωω

avatar

Δημοσίευση Την / Το Τρι Ιαν 23, 2018 10:57 pm από dinos182

Ευχαριστούμε!!

avatar

Δημοσίευση Την / Το Σαβ Φεβ 03, 2018 4:15 pm από martha35

thnx

Δημοσίευση Την / Το Παρ Φεβ 23, 2018 6:13 am από TB87

ευχαριστω!

avatar

Δημοσίευση Την / Το Παρ Φεβ 23, 2018 4:02 pm από apollonara

Ευχαριστώ

avatar

Δημοσίευση Την / Το Δευ Φεβ 26, 2018 8:15 pm από Ninamaylor

avatar

Δημοσίευση Την / Το Τρι Φεβ 27, 2018 8:17 pm από Maria Mvrd

thanks!

avatar

Δημοσίευση Την / Το Τετ Απρ 18, 2018 6:36 pm από NickSplat2

thanks

avatar

Δημοσίευση Την / Το Σαβ Μάης 05, 2018 12:06 am από dimitrisegkomit

thanks

Δημοσίευση Την / Το Τετ Ιουλ 04, 2018 5:40 am από ap-99

thanks

avatar

Δημοσίευση Την / Το Παρ Σεπ 14, 2018 1:54 pm από teliosmetonma

+Προστέθηκε το επεισόδιο S02E03 από [Πρέπει να είστε εγγεγραμμένοι και συνδεδεμένοι για να δείτε αυτόν το σύνδεσμο.]

Επισκόπηση προηγούμενης Θ.Ενότητας Επισκόπηση επόμενης Θ.Ενότητας Επιστροφή στην κορυφή Μήνυμα [Σελίδα 1 από 1]

Δικαιώματα σας στην κατηγορία αυτή
Δεν μπορείτε να απαντήσετε στα Θέματα αυτής της Δ.Συζήτησης