Teen Spirit

Ένα φόρουμ αποκλειστικά για νεανικές σειρές στα ελληνικά!


Μη Συνδεδεμενος Παρακαλώ συνδεθείτε ή εγγραφείτε

[MEGA] Lemonade Mouth DVDRip (2011)

Επισκόπηση προηγούμενης Θ.Ενότητας Επισκόπηση επόμενης Θ.Ενότητας Πήγαινε κάτω Μήνυμα [Σελίδα 1 από 1]

avatar

Santo


Ultra Member
Ultra Member

Lemonade Mouth



Περίληψη:
Όταν πέντε άγνωστοι μεταξύ τους μαθητές βρίσκονται τυχαία κλεισμένοι στην ίδια αίθουσα τιμωρίας, μοιάζουν να μην έχουν τίποτα κοινό. Όμως μέσα από τη μουσική γεννιέται ένας δυνατός δεσμός ανάμεσά τους και ανακαλύπτουν ότι μπορούν να γίνουν η πιο δυνατή band που έγινε ποτέ! Παρά τις δυσκολίες, η Ολίβια, η Στέλλα, ο Γουέν, η Μοχίνι και ο Τσάρλι γίνονται οι? Lemonade Mouth, η μουσική φωνή της γενιά τους με έμβλημα το μηχάνημα παγωμένης λεμονάδας του σχολείου! Ένα συγκρότημα που ακολουθεί το αστέρι του και μαθαίνει ότι η αληθινή διαφορά βρίσκεται μέσα στη φιλία. Lemonade Mouth, Όλος ο κόσμος γίνεται μια απέραντη σκηνή, μπες κι εσύ!

Screenshots/Thumbnails:

Χαρακτηριστικά:
General
Complete name                  : Lemonade Mouth[2011].avi
Format                         : AVI
Format/Info                    : Audio Video Interleave
File size                      : 698 MiB
Duration                       : 1h 53mn
Overall bit rate               : 862 Kbps
Writing library                : VirtualDub build 32842/release

Video
ID                             : 0
Format                         : MPEG-4 Visual
Format profile                 : Advanced Simple@L5
Format settings, BVOP          : 4
Format settings, QPel          : No
Format settings, GMC           : No warppoints
Format settings, Matrix        : Default (H.263)
Muxing mode                    : Packed bitstream
Codec ID                       : XVID
Codec ID/Hint                  : XviD
Duration                       : 1h 53mn
Bit rate                       : 741 Kbps
Width                          : 640 pixels
Height                         : 352 pixels
Display aspect ratio           : 16:9
Frame rate                     : 23.976 fps
Color space                    : YUV
Chroma subsampling             : 4:2:0
Bit depth                      : 8 bits
Scan type                      : Progressive
Compression mode               : Lossy
Bits/(Pixel*Frame)             : 0.137
Stream size                    : 600 MiB (86%)
Writing library                : XviD 62

Audio
ID                             : 1
Format                         : MPEG Audio
Format version                 : Version 1
Format profile                 : Layer 3
Mode                           : Joint stereo
Mode extension                 : MS Stereo
Codec ID                       : 55
Codec ID/Hint                  : MP3
Duration                       : 1h 53mn
Bit rate mode                  : Constant
Bit rate                       : 112 Kbps
Channel(s)                     : 2 channels
Sampling rate                  : 48.0 KHz
Compression mode               : Lossy
Stream size                    : 90.6 MiB (13%)
Alignment                      : Split accross interleaves
Interleave, duration           : 42 ms (1.00 video frame)
Interleave, preload duration   : 500 ms
Writing library                : LAME3.98r
Encoding settings              : -m j -V 4 -q 3 -lowpass 15.6 -b 112


Υπότιτλοι:
Οι υπότιτλοι είναι εξωτερικοί και ανήκουν στην ομάδα The_Sisters_Karamazov_2

Link:


Πρέπει να κάνετε ένα σχόλιο για να δείτε το link.
Το αρχικό ανέβασμα δεν είναι δικό μου.

ΚΑΛΗ ΘΕΑΣΗ Very Happy



Έχει επεξεργασθεί από τον/την Santo στις Πεμ Δεκ 15, 2016 12:52 am, 1 φορά

Μοιραστείτε αυτή τη δημοσίευση στο:Excite BookmarksDiggRedditDel.icio.usGoogleLiveSlashdotNetscapeTechnoratiStumbleUponNewsvineFurlYahooSmarking

avatar

Δημοσίευση Την / Το Σαβ Φεβ 28, 2015 5:39 pm από Alex

Ευχαριστώ!

Δημοσίευση Την / Το Τετ Μαρ 11, 2015 6:19 am από TB87

ευχαριστω

Δημοσίευση Την / Το Τρι Μαρ 31, 2015 10:36 pm από Nick mick

Ας ελπίσουμε οτι η Disney θα συνεχίσει ετσι...

Δημοσίευση Την / Το Σαβ Ιουλ 25, 2015 8:56 pm από sparky92

thank youu Smile

Δημοσίευση Την / Το Πεμ Σεπ 03, 2015 9:40 am από panagiotis94

avatar

Δημοσίευση Την / Το Δευ Σεπ 28, 2015 1:48 am από lef0

Ευχαριστώ

Δημοσίευση Την / Το Σαβ Οκτ 10, 2015 8:26 pm από disney12

teleio

avatar

Δημοσίευση Την / Το Κυρ Οκτ 11, 2015 9:11 am από Nikos7Gauros

Ευχαριστούμε πολύ!! Very Happy

avatar

Δημοσίευση Την / Το Σαβ Μαρ 05, 2016 11:51 pm από marakilovaki

avatar

Δημοσίευση Την / Το Σαβ Ιαν 21, 2017 8:05 pm από takis

ΕΥΧΑΡΙΣΤΩ

Επισκόπηση προηγούμενης Θ.Ενότητας Επισκόπηση επόμενης Θ.Ενότητας Επιστροφή στην κορυφή Μήνυμα [Σελίδα 1 από 1]

Δικαιώματα σας στην κατηγορία αυτή
Δεν μπορείτε να απαντήσετε στα Θέματα αυτής της Δ.Συζήτησης