Teen Spirit

Ένα φόρουμ αποκλειστικά για νεανικές σειρές στα ελληνικά!


Μη Συνδεδεμενος Παρακαλώ συνδεθείτε ή εγγραφείτε

[MEGA] Με λένε Φράνκυ DTVRip (2017-)

Επισκόπηση προηγούμενης Θ.Ενότητας Επισκόπηση επόμενης Θ.Ενότητας Πήγαινε κάτω Μήνυμα [Σελίδα 1 από 1]

avatar

teliosmetonma


Ultra Member
Ultra Member
http://www.yugioh.gr



Η Φράνκη μοιάζει με τυπική έφηβη αλλά κρύβει ένα πολύ μεγάλο μυστικό. Στην πραγματικότητα είναι ένα υπερσύγχρονο ρομπότ που πρέπει να κρατήσει κρυφή την πραγματική του ταυτότητα για να αποφύγει την κακή εταιρεία...



INFO:
General
Complete name                  : F:\tvrips\Με λένε Φράνκυ S01E01.mp4
Format                         : MPEG-4
Format profile                 : Base Media / Version 2
Codec ID                       : mp42 (isom/iso2/avc1/mp41)
File size                      : 127 MiB
Duration                       : 21 min 14 s
Overall bit rate mode          : Variable
Overall bit rate               : 834 kb/s
Encoded date                   : UTC 2018-01-20 13:29:56
Tagged date                    : UTC 2018-01-20 13:29:56
Writing application            : HandBrake 1.0.7 2017040900

Video
ID                             : 1
Format                         : AVC
Format/Info                    : Advanced Video Codec
Format profile                 : Main@L3.1
Format settings                : CABAC / 4 Ref Frames
Format settings, CABAC         : Yes
Format settings, RefFrames     : 4 frames
Codec ID                       : avc1
Codec ID/Info                  : Advanced Video Coding
Duration                       : 21 min 14 s
Bit rate                       : 667 kb/s
Width                          : 720 pixels
Height                         : 576 pixels
Display aspect ratio           : 16:9
Frame rate mode                : Constant
Frame rate                     : 25.000 FPS
Standard                       : PAL
Color space                    : YUV
Chroma subsampling             : 4:2:0
Bit depth                      : 8 bits
Scan type                      : Progressive
Bits/(Pixel*Frame)             : 0.064
Stream size                    : 101 MiB (80%)
Writing library                : x264 core 148 r2708 86b7198
Encoding settings              : cabac=1 / ref=1 / deblock=1:0:0 / analyse=0x1:0x111 / me=hex / subme=2 / psy=1 / psy_rd=1.00:0.00 / mixed_ref=0 / me_range=16 / chroma_me=1 / trellis=0 / 8x8dct=0 / cqm=0 / deadzone=21,11 / fast_pskip=1 / chroma_qp_offset=0 / threads=6 / lookahead_threads=2 / sliced_threads=0 / nr=0 / decimate=1 / interlaced=0 / bluray_compat=0 / constrained_intra=0 / bframes=3 / b_pyramid=2 / b_adapt=1 / b_bias=0 / direct=1 / weightb=1 / open_gop=0 / weightp=1 / keyint=250 / keyint_min=25 / scenecut=40 / intra_refresh=0 / rc_lookahead=10 / rc=crf / mbtree=1 / crf=23.0 / qcomp=0.60 / qpmin=0 / qpmax=69 / qpstep=4 / vbv_maxrate=14000 / vbv_bufsize=14000 / crf_max=0.0 / nal_hrd=none / filler=0 / ip_ratio=1.40 / aq=1:1.00
Encoded date                   : UTC 2018-01-20 13:29:56
Tagged date                    : UTC 2018-01-20 13:29:56
Color range                    : Limited
Color primaries                : BT.601 PAL
Transfer characteristics       : BT.709
Matrix coefficients            : BT.601

Audio
ID                             : 2
Format                         : AAC
Format/Info                    : Advanced Audio Codec
Format profile                 : LC
Codec ID                       : mp4a-40-2
Duration                       : 21 min 14 s
Bit rate mode                  : Variable
Bit rate                       : 160 kb/s
Channel(s)                     : 2 channels
Channel positions              : Front: L R
Sampling rate                  : 48.0 kHz
Frame rate                     : 46.875 FPS (1024 SPF)
Compression mode               : Lossy
Stream size                    : 24.4 MiB (19%)
Title                          : Stereo / Stereo
Language                       : Greek
Default                        : Yes
Alternate group                : 1
Encoded date                   : UTC 2018-01-20 13:29:56
Tagged date                    : UTC 2018-01-20 13:29:56

THUMBNAILS:

Σε αυτό το φάκελο θα ανεβαίνουν τα επεισόδια: 


Για να δείτε το λινκ πείτε ευχαριστώ!


Αν μπορεί ας μείνει στο TeenSpirit μόνο

Μοιραστείτε αυτή τη δημοσίευση στο:diggdeliciousredditstumbleuponslashdotyahoogooglelive

Δημοσίευση Την / Το Πεμ Ιαν 25, 2018 3:01 pm από panagiotis94

avatar

Δημοσίευση Την / Το Παρ Ιαν 26, 2018 7:22 pm από marios121

Ευχαριστώ πολύ

avatar

Δημοσίευση Την / Το Δευ Φεβ 12, 2018 5:59 pm από jeezus

Very Happy

Δημοσίευση Την / Το Παρ Φεβ 23, 2018 6:08 am από TB87

ευχαριστω!

avatar

Δημοσίευση Την / Το Παρ Φεβ 23, 2018 8:55 pm από i.tzer

[Πρέπει να είστε εγγεγραμμένοι και συνδεδεμένοι για να δείτε αυτόν το σύνδεσμο.] έγραψε:
thanks

avatar

Δημοσίευση Την / Το Κυρ Φεβ 25, 2018 6:33 pm από spirosniotis

Ευχαριστώ

avatar

Δημοσίευση Την / Το Δευ Φεβ 26, 2018 5:49 pm από Ninamaylor

avatar

Δημοσίευση Την / Το Δευ Φεβ 26, 2018 6:06 pm από xarhs

thanks

avatar

Δημοσίευση Την / Το Τρι Φεβ 27, 2018 8:16 pm από Maria Mvrd

thanks!

avatar

Δημοσίευση Την / Το Κυρ Μαρ 04, 2018 6:34 pm από 12041912

thanks

avatar

Δημοσίευση Την / Το Πεμ Μαρ 15, 2018 11:40 pm από lef0

Ευχαριστω!

avatar

Δημοσίευση Την / Το Σαβ Μαρ 17, 2018 9:54 am από oom34

Very Happy

avatar

Δημοσίευση Την / Το Τρι Μαρ 27, 2018 12:59 am από i.tzer

[Πρέπει να είστε εγγεγραμμένοι και συνδεδεμένοι για να δείτε αυτόν το σύνδεσμο.] έγραψε:

Η Φράνκη μοιάζει με τυπική έφηβη αλλά κρύβει ένα πολύ μεγάλο μυστικό. Στην πραγματικότητα είναι ένα υπερσύγχρονο ρομπότ που πρέπει να κρατήσει κρυφή την πραγματική του ταυτότητα για να αποφύγει την κακή εταιρεία...



INFO:
General
Complete name                  : F:\tvrips\Με λένε Φράνκυ S01E01.mp4
Format                         : MPEG-4
Format profile                 : Base Media / Version 2
Codec ID                       : mp42 (isom/iso2/avc1/mp41)
File size                      : 127 MiB
Duration                       : 21 min 14 s
Overall bit rate mode          : Variable
Overall bit rate               : 834 kb/s
Encoded date                   : UTC 2018-01-20 13:29:56
Tagged date                    : UTC 2018-01-20 13:29:56
Writing application            : HandBrake 1.0.7 2017040900

Video
ID                             : 1
Format                         : AVC
Format/Info                    : Advanced Video Codec
Format profile                 : Main@L3.1
Format settings                : CABAC / 4 Ref Frames
Format settings, CABAC         : Yes
Format settings, RefFrames     : 4 frames
Codec ID                       : avc1
Codec ID/Info                  : Advanced Video Coding
Duration                       : 21 min 14 s
Bit rate                       : 667 kb/s
Width                          : 720 pixels
Height                         : 576 pixels
Display aspect ratio           : 16:9
Frame rate mode                : Constant
Frame rate                     : 25.000 FPS
Standard                       : PAL
Color space                    : YUV
Chroma subsampling             : 4:2:0
Bit depth                      : 8 bits
Scan type                      : Progressive
Bits/(Pixel*Frame)             : 0.064
Stream size                    : 101 MiB (80%)
Writing library                : x264 core 148 r2708 86b7198
Encoding settings              : cabac=1 / ref=1 / deblock=1:0:0 / analyse=0x1:0x111 / me=hex / subme=2 / psy=1 / psy_rd=1.00:0.00 / mixed_ref=0 / me_range=16 / chroma_me=1 / trellis=0 / 8x8dct=0 / cqm=0 / deadzone=21,11 / fast_pskip=1 / chroma_qp_offset=0 / threads=6 / lookahead_threads=2 / sliced_threads=0 / nr=0 / decimate=1 / interlaced=0 / bluray_compat=0 / constrained_intra=0 / bframes=3 / b_pyramid=2 / b_adapt=1 / b_bias=0 / direct=1 / weightb=1 / open_gop=0 / weightp=1 / keyint=250 / keyint_min=25 / scenecut=40 / intra_refresh=0 / rc_lookahead=10 / rc=crf / mbtree=1 / crf=23.0 / qcomp=0.60 / qpmin=0 / qpmax=69 / qpstep=4 / vbv_maxrate=14000 / vbv_bufsize=14000 / crf_max=0.0 / nal_hrd=none / filler=0 / ip_ratio=1.40 / aq=1:1.00
Encoded date                   : UTC 2018-01-20 13:29:56
Tagged date                    : UTC 2018-01-20 13:29:56
Color range                    : Limited
Color primaries                : BT.601 PAL
Transfer characteristics       : BT.709
Matrix coefficients            : BT.601

Audio
ID                             : 2
Format                         : AAC
Format/Info                    : Advanced Audio Codec
Format profile                 : LC
Codec ID                       : mp4a-40-2
Duration                       : 21 min 14 s
Bit rate mode                  : Variable
Bit rate                       : 160 kb/s
Channel(s)                     : 2 channels
Channel positions              : Front: L R
Sampling rate                  : 48.0 kHz
Frame rate                     : 46.875 FPS (1024 SPF)
Compression mode               : Lossy
Stream size                    : 24.4 MiB (19%)
Title                          : Stereo / Stereo
Language                       : Greek
Default                        : Yes
Alternate group                : 1
Encoded date                   : UTC 2018-01-20 13:29:56
Tagged date                    : UTC 2018-01-20 13:29:56

THUMBNAILS:

Σε αυτό το φάκελο θα ανεβαίνουν τα επεισόδια: 


Για να δείτε το λινκ πείτε ευχαριστώ!


Αν μπορεί ας μείνει στο TeenSpirit μόνο
thanks

Δημοσίευση Την / Το Τρι Μαρ 27, 2018 9:24 pm από ihaveyouall

Thx m8!

avatar

Δημοσίευση Την / Το Πεμ Απρ 12, 2018 5:55 pm από NickSplat2

thanks

Επισκόπηση προηγούμενης Θ.Ενότητας Επισκόπηση επόμενης Θ.Ενότητας Επιστροφή στην κορυφή Μήνυμα [Σελίδα 1 από 1]

Δικαιώματα σας στην κατηγορία αυτή
Δεν μπορείτε να απαντήσετε στα Θέματα αυτής της Δ.Συζήτησης