Teen Spirit

Ένα φόρουμ αποκλειστικά για νεανικές σειρές στα ελληνικά!


Μη Συνδεδεμενος Παρακαλώ συνδεθείτε ή εγγραφείτε

[Mega] Scooby-Doo Live-Action Movies Ultimate Collection - DUAL AUDIO

Επισκόπηση προηγούμενης Θ.Ενότητας Επισκόπηση επόμενης Θ.Ενότητας Πήγαινε κάτω Μήνυμα [Σελίδα 1 από 1]

avatar

evstav


Ultra Member
Ultra Member
http://biggamezone.forumgreek.com

Το project ολοκληρώθηκε προς το παρόν! Μένει μόνο να βρεθεί Ελληνικός ήχος του SD! The Mystery Begins.

Theatrical Films

Scooby-Doo (2002)
Σκούμπι-Ντου: Ένας τετράποδος ήρωας
720p, Αγγλικός ήχος, Ελληνικοί+Αγγλικοί Υπότιτλοι
Δύο χρόνια έχουν περάσει από τότε που η “Mystery Inc.” διαλύθηκε κι ο καθένας πλέον έχει πάρει τον δικό του δρόμο.
Όμως θ’ αναγκαστούν να ξαναενώσουν τις δυνάμεις τους όταν ο μυστηριώδης ιδιοκτήτης του Spooky Island ζητήσει τη βοήθειά τους για να λύσουν το μυστήριο μιας σειράς υπερφυσικών δεδομένων.

Αμφιβάλλω αν σε αυτήν την ταινία υπάρχει ελληνική μεταγλώττιση, γιατί τα DVD που βρήκα με μια αναζήτηση στο Google δεν έγραφαν τίποτα.
Credits:
Βίντεο+Ελληνικοί υπότιτλοι....................................................................................................Torrent
Αγγλικοί υπότιτλοι.................................................................................................................SubScene
Συγχρονισμός υποτίτλων........................................................................................................evstav
Thumbnails:
Ηθοποιοί:
Sarah Michelle Gellar, Matthew Lillard, Freddie Prinze Jr., Linda Cardellini, Rowan Atkinson κλπ
Info:
General
Unique ID                                : 46100148022129108197957919449282108488 (0x22AE90C7FE3200C04A251792BE59DC48)
Complete name                            : I:\Evaggelos\Scooby-Doo (2002) BRRip 720p\Scooby-Doo (2002).mkv
Format                                   : Matroska
Format version                           : Version 4 / Version 2
File size                                : 1.04 GiB
Duration                                 : 1 h 26 min
Overall bit rate                         : 1 726 kb/s
Encoded date                             : UTC 2018-04-22 09:41:34
Writing application                      : mkvmerge v22.0.0 ('At The End Of The World') 64-bit
Writing library                          : libebml v1.3.5 + libmatroska v1.4.8

Video
ID                                       : 1
Format                                   : AVC
Format/Info                              : Advanced Video Codec
Format profile                           : High@L4.1
Format settings                          : CABAC / 4 Ref Frames
Format settings, CABAC                   : Yes
Format settings, ReFrames                : 4 frames
Codec ID                                 : V_MPEG4/ISO/AVC
Duration                                 : 1 h 26 min
Bit rate                                 : 1 500 kb/s
Width                                    : 1 280 pixels
Height                                   : 716 pixels
Display aspect ratio                     : 16:9
Frame rate mode                          : Constant
Frame rate                               : 23.976 (23976/1000) FPS
Color space                              : YUV
Chroma subsampling                       : 4:2:0
Bit depth                                : 8 bits
Scan type                                : Progressive
Bits/(Pixel*Frame)                       : 0.068
Stream size                              : 929 MiB (87%)
Writing library                          : x264 core 148 r2638M 7599210
Encoding settings                        : cabac=1 / ref=4 / deblock=1👎-1 / analyse=0x3:0x113 / me=umh / subme=9 / psy=1 / psy_rd=1.00:0.15 / mixed_ref=1 / me_range=24 / chroma_me=1 / trellis=2 / 8x8dct=1 / cqm=0 / deadzone=21,11 / fast_pskip=1 / chroma_qp_offset=-3 / threads=32 / lookahead_threads=4 / sliced_threads=0 / nr=0 / decimate=1 / interlaced=0 / bluray_compat=0 / constrained_intra=0 / bframes=3 / b_pyramid=2 / b_adapt=2 / b_bias=0 / direct=3 / weightb=1 / open_gop=0 / weightp=2 / keyint=250 / keyint_min=25 / scenecut=40 / intra_refresh=0 / rc_lookahead=50 / rc=2pass / mbtree=1 / bitrate=1500 / ratetol=1.0 / qcomp=0.60 / qpmin=0 / qpmax=69 / qpstep=4 / cplxblur=20.0 / qblur=0.5 / vbv_maxrate=31250 / vbv_bufsize=31250 / nal_hrd=none / filler=0 / ip_ratio=1.40 / aq=3:1.00
Default                                  : Yes
Forced                                   : No

Audio
ID                                       : 2
Format                                   : AAC
Format/Info                              : Advanced Audio Codec
Format profile                           : LC
Codec ID                                 : A_AAC-2
Duration                                 : 1 h 26 min
Bit rate                                 : 224 kb/s
Channel(s)                               : 6 channels
Channel positions                        : Front: L C R, Side: L R, LFE
Sampling rate                            : 48.0 kHz
Frame rate                               : 46.875 FPS (1024 SPF)
Compression mode                         : Lossy
Stream size                              : 139 MiB (13%)
Language                                 : English
Default                                  : Yes
Forced                                   : No

Text #1
ID                                       : 3
Format                                   : UTF-8
Codec ID                                 : S_TEXT/UTF8
Codec ID/Info                            : UTF-8 Plain Text
Duration                                 : 1 h 20 min
Bit rate                                 : 77 b/s
Count of elements                        : 866
Stream size                              : 45.5 KiB (0%)
Title                                    : Greek
Default                                  : Yes
Forced                                   : No

Text #2
ID                                       : 4
Format                                   : UTF-8
Codec ID                                 : S_TEXT/UTF8
Codec ID/Info                            : UTF-8 Plain Text
Duration                                 : 1 h 20 min
Bit rate                                 : 48 b/s
Count of elements                        : 839
Stream size                              : 28.5 KiB (0%)
Title                                    : English[CC]
Default                                  : No
Forced                                   : No


__________________________________________________________________________________________________________

Scooby-Doo 2: Monsters Unleashed (2004)
Σκούμπι-Ντου 2: Τα τέρατα απελευθερώθηκαν
1080p, Dual Audio Αγγλικός+Ελληνικός ήχος, Ελληνικοί+Αγγλικοί υπότιτλοι
Η θρυλική παρέα του αξιαγάπητου σκύλου και των συντρόφων του ξαναχτυπά με σκοπό αυτή τη φορά να σώσει μια μικρή πόλη από μηχανή κατασκευής φαντασμάτων... Θα αμφισβητηθεί το αστυνομικό τους δαιμόνιο και θα τους μειώσουν με σκοπό να δημιουργηθεί πανικός κι ένας παρανοϊκός επιστήμονας θα επιστρέψει για να πάρει την εκδίκηση του... Όμως η Μυστήριο Α.Ε. δεν το βάζει κάτω! Γέλιο δράση και περιπέτεια σε άφθονες ποσότητες για μικρούς και μεγάλους!

Ο Ελληνικός ήχος είναι από ένα DVDRip που κατέβασα παλιά από το EzAccess πριν καιρό. Δεν γνωρίζω τον αρχικό Uploader.

Credits:

Συγχρονισμός Ελληνικού ήχου με εικόνα..................................................................................................evstav
Παροχή Ελληνικού ήχου..............................................................................................................................EzAccess
Βίντεο+CC.....................................................................................................................................................Torrent
Ελληνικοί υπότιτλοι.........................................................................................................................................Subs4Free
Thumbnails:
Info:
General
Unique ID                                : 70898086727960438450859080430036418887 (0x3556798DFE97FF3E60CFF5A8B5578147)
Complete name                            : F:\WB\Scooby-Doo\Scooby-Doo Live Action Movies\Theatrical Films\Scooby.Doo.2.Monsters.Unleashed.2004.1080p.BluRay.EN-GR.H264.AAC-RARBG.mkv
Format                                   : Matroska
Format version                           : Version 4 / Version 2
File size                                : 1.87 GiB
Duration                                 : 1 h 32 min
Overall bit rate                         : 2 887 kb/s
Encoded date                             : UTC 2018-04-21 19:37:24
Writing application                      : mkvmerge v22.0.0 ('At The End Of The World') 64-bit
Writing library                          : libebml v1.3.5 + libmatroska v1.4.8

Video
ID                                       : 1
Format                                   : AVC
Format/Info                              : Advanced Video Codec
Format profile                           : High@L4.1
Format settings                          : CABAC / 4 Ref Frames
Format settings, CABAC                   : Yes
Format settings, ReFrames                : 4 frames
Codec ID                                 : V_MPEG4/ISO/AVC
Duration                                 : 1 h 32 min
Bit rate                                 : 2 500 kb/s
Width                                    : 1 920 pixels
Height                                   : 1 080 pixels
Display aspect ratio                     : 16:9
Frame rate mode                          : Constant
Frame rate                               : 23.976 (23976/1000) FPS
Color space                              : YUV
Chroma subsampling                       : 4:2:0
Bit depth                                : 8 bits
Scan type                                : Progressive
Bits/(Pixel*Frame)                       : 0.050
Stream size                              : 1.62 GiB (87%)
Writing library                          : x264 core 148 r2638M 7599210
Encoding settings                        : cabac=1 / ref=4 / deblock=1👎-1 / analyse=0x3:0x113 / me=umh / subme=9 / psy=1 / psy_rd=1.00:0.15 / mixed_ref=1 / me_range=24 / chroma_me=1 / trellis=2 / 8x8dct=1 / cqm=0 / deadzone=21,11 / fast_pskip=1 / chroma_qp_offset=-3 / threads=32 / lookahead_threads=4 / sliced_threads=0 / nr=0 / decimate=1 / interlaced=0 / bluray_compat=0 / constrained_intra=0 / bframes=3 / b_pyramid=2 / b_adapt=2 / b_bias=0 / direct=3 / weightb=1 / open_gop=0 / weightp=2 / keyint=250 / keyint_min=25 / scenecut=40 / intra_refresh=0 / rc_lookahead=50 / rc=2pass / mbtree=1 / bitrate=2500 / ratetol=1.0 / qcomp=0.60 / qpmin=0 / qpmax=69 / qpstep=4 / cplxblur=20.0 / qblur=0.5 / vbv_maxrate=31250 / vbv_bufsize=31250 / nal_hrd=none / filler=0 / ip_ratio=1.40 / aq=3:1.00
Default                                  : Yes
Forced                                   : No

Audio #1
ID                                       : 2
Format                                   : AAC
Format/Info                              : Advanced Audio Codec
Format profile                           : LC
Codec ID                                 : A_AAC-2
Duration                                 : 1 h 32 min
Bit rate                                 : 224 kb/s
Channel(s)                               : 6 channels
Channel positions                        : Front: L C R, Side: L R, LFE
Sampling rate                            : 48.0 kHz
Frame rate                               : 46.875 FPS (1024 SPF)
Compression mode                         : Lossy
Stream size                              : 149 MiB (8%)
Title                                    : English
Default                                  : No
Forced                                   : No

Audio #2
ID                                       : 5
Format                                   : MPEG Audio
Format version                           : Version 1
Format profile                           : Layer 3
Format settings                          : Joint stereo
Codec ID                                 : A_MPEG/L3
Codec ID/Hint                            : MP3
Duration                                 : 1 h 32 min
Bit rate mode                            : Constant
Bit rate                                 : 160 kb/s
Channel(s)                               : 2 channels
Sampling rate                            : 44.1 kHz
Frame rate                               : 38.281 FPS (1152 SPF)
Compression mode                         : Lossy
Stream size                              : 106 MiB (6%)
Title                                    : Greek
Writing library                          : LAME3.97
Default                                  : Yes
Forced                                   : No

Text #1
ID                                       : 3
Format                                   : UTF-8
Codec ID                                 : S_TEXT/UTF8
Codec ID/Info                            : UTF-8 Plain Text
Duration                                 : 1 h 31 min
Bit rate                                 : 53 b/s
Count of elements                        : 1134
Stream size                              : 35.6 KiB (0%)
Title                                    : English[CC]
Default                                  : No
Forced                                   : No

Text #2
ID                                       : 4
Format                                   : UTF-8
Codec ID                                 : S_TEXT/UTF8
Codec ID/Info                            : UTF-8 Plain Text
Duration                                 : 1 h 24 min
Bit rate                                 : 86 b/s
Count of elements                        : 1014
Stream size                              : 53.7 KiB (0%)
Title                                    : Greek
Default                                  : No
Forced                                   : No

Ηθοποιοί:

Live Action: Freddie Prinze Jr.
Sarah Michelle Gellar
Matthew Lillard
Linda Cardellini
Seth Green
Peter Boyle
Tim Blake Nelson
Alicia Silverstone
Scott McNeil
Kevin Durand
Karin Konoval
Joe Macleod
Brandon Jay McLaren
Calum Worthy
C. Ernst Harth
Nazanin Afshin-Jam
Cascy Beddow
Emily Tennant
Lauren Kennedy
Ryan Vrba
Stephen E. Miller
Zahf Paroo
Christopher R. Sumpton

Μεταγλώττιση:
Λουκάς Φραγκούλης
Βασίλης Καϊλας
Γιώργος Χατζηγεωργίου
Χρυσούλα Παπαδοπούλου
Κατερίνα Γκίργκις
Ντορίνα Θεοχαρίδου
Υρώ Λούπη
Θανάσης Κουρλαμπάς
Ντίνος Σούτης
Φώτης Πετρίδης
Τηλέμαχος Κρεβάικας

Συμμετέχουν μερικοί ακόμη που δεν αναγνωρίζω



----------------------------------------------------------------------------------------------------------------------------------------------------

TV Movies

Scooby-Doo! The Mystery Begins (2009)
Σκούμπι-Ντου: Το μυστήριο αρχίζει
720p, Αγγλικός ήχος, Ελληνικοί+Αγγλικοί υπότιτλοι
Τέρμα οι απορίες για το πώς γνωρίστηκαν κι έγιναν ομάδα ο Φρεντ, η Βέλμα, ο Σάγκι, η Δάφνη και ο καταπληκτικός Σκούμπι Ντου.

Το βίντεο είναι από το Pahe.in. Για αυτήν την ταινία υπάρχει μεταγλώττιση, αλλά δεν έχει ανέβει πουθενά. Έχει προβληθεί αρκετές φορές στο συνδρομητικό Boomerang. Αν κάποιος την έχει γράψει, παρακαλώ να μου τη στείλει σε PM.

Credits:

Βίντεο υψηλής ποιότητας+CC...................................................................................................................Pahe.in
Ελληνικοί υπότιτλοι.................................................................................................................................GMTeam
Συγχρονισμός υποτίτλων..........................................................................................................................evstav
Thumbnails:
Info:
General
Unique ID                                : 236445874354516250619046466618717730058 (0xB1E1D1A7AA4CF8229E1F14D7B9A1750A)
Complete name                            : F:\WB\Scooby-Doo\Scooby-Doo Live Action Movies\TV Films\Scooby.Doo.The.Mystery.Begins.2009.720p.BluRay.x264.750MB-Pahe.in.mkv
Format                                   : Matroska
Format version                           : Version 4 / Version 2
File size                                : 751 MiB
Duration                                 : 1 h 22 min
Overall bit rate                         : 1 274 kb/s
Movie name                               : Scooby-Doo! The Mystery Begins (2009) - Pahe.in
Encoded date                             : UTC 2018-04-21 15:05:49
Writing application                      : mkvmerge v9.0.1 ('Obstacles') 32bit
Writing library                          : libebml v1.3.3 + libmatroska v1.4.4
Cover                                    : Yes
Attachments                              : cover.jpg

Video
ID                                       : 1
Format                                   : AVC
Format/Info                              : Advanced Video Codec
Format profile                           : High@L4
Format settings                          : CABAC / 8 Ref Frames
Format settings, CABAC                   : Yes
Format settings, ReFrames                : 8 frames
Codec ID                                 : V_MPEG4/ISO/AVC
Duration                                 : 1 h 22 min
Bit rate                                 : 1 192 kb/s
Width                                    : 1 280 pixels
Height                                   : 720 pixels
Display aspect ratio                     : 16:9
Frame rate mode                          : Constant
Frame rate                               : 23.976 (24000/1001) FPS
Color space                              : YUV
Chroma subsampling                       : 4:2:0
Bit depth                                : 8 bits
Scan type                                : Progressive
Bits/(Pixel*Frame)                       : 0.054
Stream size                              : 702 MiB (94%)
Writing library                          : x264 core 148 r2721 72d53ab
Encoding settings                        : cabac=1 / ref=8 / deblock=1👎-1 / analyse=0x3:0x133 / me=umh / subme=9 / psy=1 / psy_rd=1.00:0.15 / mixed_ref=1 / me_range=24 / chroma_me=1 / trellis=2 / 8x8dct=1 / cqm=0 / deadzone=21,11 / fast_pskip=1 / chroma_qp_offset=-3 / threads=12 / lookahead_threads=1 / sliced_threads=0 / nr=0 / decimate=1 / interlaced=0 / bluray_compat=0 / constrained_intra=0 / bframes=3 / b_pyramid=2 / b_adapt=2 / b_bias=0 / direct=3 / weightb=1 / open_gop=0 / weightp=2 / keyint=250 / keyint_min=23 / scenecut=40 / intra_refresh=0 / rc_lookahead=60 / rc=2pass / mbtree=1 / bitrate=1192 / ratetol=1.0 / qcomp=0.60 / qpmin=0 / qpmax=69 / qpstep=4 / cplxblur=20.0 / qblur=0.5 / vbv_maxrate=19000 / vbv_bufsize=17500 / nal_hrd=none / filler=0 / ip_ratio=1.40 / aq=3:0.80
Default                                  : Yes
Forced                                   : No

Audio
ID                                       : 2
Format                                   : AAC
Format/Info                              : Advanced Audio Codec
Format profile                           : LC
Codec ID                                 : A_AAC-2
Duration                                 : 1 h 22 min
Bit rate                                 : 80.0 kb/s
Channel(s)                               : 2 channels
Channel positions                        : Front: L R
Sampling rate                            : 48.0 kHz
Frame rate                               : 46.875 FPS (1024 SPF)
Compression mode                         : Lossy
Delay relative to video                  : 9 ms
Stream size                              : 47.1 MiB (6%)
Language                                 : English
Default                                  : No
Forced                                   : No

Text #1
ID                                       : 3
Format                                   : UTF-8
Codec ID                                 : S_TEXT/UTF8
Codec ID/Info                            : UTF-8 Plain Text
Duration                                 : 1 h 21 min
Bit rate                                 : 66 b/s
Count of elements                        : 1151
Stream size                              : 39.4 KiB (0%)
Title                                    : English[CC]
Default                                  : No
Forced                                   : No

Text #2
ID                                       : 4
Format                                   : UTF-8
Codec ID                                 : S_TEXT/UTF8
Codec ID/Info                            : UTF-8 Plain Text
Duration                                 : 1 h 18 min
Bit rate                                 : 122 b/s
Count of elements                        : 1091
Stream size                              : 70.0 KiB (0%)
Title                                    : Greek
Default                                  : Yes
Forced                                   : No

Ηθοποιοί:
Robbie Amell
Kate Melton
Hayley Kiyoko
Nick Palatas
Frank Welker
Shawn Macdonald
Garry Chalk
C. Ernst Harth
Lorena Gale
Daniel Riordan



__________________________________________________________________________________________________________

Scooby Doo! Curse of the Lake Monster (2010)
Σκούμπι-Ντου! Η κατάρα του τέρατος της λίμνης
720p, Dual Audio Ελληνικός+Αγγλικός ήχος, Ελληνικοί+Αγγλικοί υπότιτλοι
Η σχολική χρονιά έχει τελειώσει και έρχεται η ώρα της διασκέδασής καθώς η Δάφνη, η Βέλμα, ο Φρεντ, ο Σάγκι και ο τετράποδος αγαπημένος φίλος τους Σκούμπι – Ντου, πηγαίνουν για καλοκαιρινή εργασία σε ένα θέρετρο.
Αλλά κάτι παράξενο συμβαίνει εκεί – κάτι που θα τρέψει σε φυγή τους πελάτες του θέρετρου αλλά και την παρέα, που απεγνωσμένα χρειάζεται αυτή τη δουλειά. Το μυστήριο αιωρείται στην ατμόσφαιρα. Το ίδιο και ο έρωτας καθώς ο Σάγκι ερωτεύεται τη Βέλμα. Μπορεί αυτή η απρόσμενη συναισθηματική εξέλιξη να διχάσει την αχώριστη παρέα;

Το βίντεο είναι από το Pahe.in. Ο Ελληνικός ήχος είναι από DVDRip του @KIKOS που είχε ανεβεί παλιά στο Cosmoleech.

Credits:

Βίντεο+CC.............................................................................................................................................Pahe.in
Ελληνικοί υπότιτλοι.................................................................................................................................F.B.B!
Συγχρονισμός ήχου+εικόνας, διορθώσεις και συγχρονισμός υποτίτλων...........................................................evstav
Τhumbnails:
Info:
General
Unique ID                                : 111916599799145469161525078182254908253 (0x54325A63A105340685366DD44EA0935D)
Complete name                            : F:\WB\Scooby-Doo\Scooby-Doo Live Action Movies\TV Films\Scooby.Doo.Curse.of.the.Lake.Monster.2010.720p.BluRay.EN-GR.x264.850MB-Pahe.in&evstav.mkv
Format                                   : Matroska
Format version                           : Version 4 / Version 2
File size                                : 829 MiB
Duration                                 : 1 h 22 min
Overall bit rate mode                    : Variable
Overall bit rate                         : 1 410 kb/s
Movie name                               : Scooby-doo! Curse Of The Lake Monster (2010) - Pahe.in
Encoded date                             : UTC 2018-04-21 16:20:51
Writing application                      : mkvmerge v22.0.0 ('At The End Of The World') 64-bit
Writing library                          : libebml v1.3.5 + libmatroska v1.4.8
Cover                                    : Yes
Attachments                              : cover.jpg

Video
ID                                       : 1
Format                                   : AVC
Format/Info                              : Advanced Video Codec
Format profile                           : High@L4
Format settings                          : CABAC / 8 Ref Frames
Format settings, CABAC                   : Yes
Format settings, ReFrames                : 8 frames
Codec ID                                 : V_MPEG4/ISO/AVC
Duration                                 : 1 h 22 min
Bit rate                                 : 1 189 kb/s
Width                                    : 1 280 pixels
Height                                   : 720 pixels
Display aspect ratio                     : 16:9
Frame rate mode                          : Constant
Frame rate                               : 23.976 (24000/1001) FPS
Color space                              : YUV
Chroma subsampling                       : 4:2:0
Bit depth                                : 8 bits
Scan type                                : Progressive
Bits/(Pixel*Frame)                       : 0.054
Stream size                              : 699 MiB (84%)
Writing library                          : x264 core 148 r2721 72d53ab
Encoding settings                        : cabac=1 / ref=8 / deblock=1👎-1 / analyse=0x3:0x133 / me=umh / subme=9 / psy=1 / psy_rd=1.00:0.15 / mixed_ref=1 / me_range=24 / chroma_me=1 / trellis=2 / 8x8dct=1 / cqm=0 / deadzone=21,11 / fast_pskip=1 / chroma_qp_offset=-3 / threads=12 / lookahead_threads=1 / sliced_threads=0 / nr=0 / decimate=1 / interlaced=0 / bluray_compat=0 / constrained_intra=0 / bframes=3 / b_pyramid=2 / b_adapt=2 / b_bias=0 / direct=3 / weightb=1 / open_gop=0 / weightp=2 / keyint=250 / keyint_min=23 / scenecut=40 / intra_refresh=0 / rc_lookahead=60 / rc=2pass / mbtree=1 / bitrate=1189 / ratetol=1.0 / qcomp=0.60 / qpmin=0 / qpmax=69 / qpstep=4 / cplxblur=20.0 / qblur=0.5 / vbv_maxrate=19000 / vbv_bufsize=17500 / nal_hrd=none / filler=0 / ip_ratio=1.40 / aq=3:0.80
Default                                  : Yes
Forced                                   : No

Audio #1
ID                                       : 2
Format                                   : AAC
Format/Info                              : Advanced Audio Codec
Format profile                           : LC
Codec ID                                 : A_AAC-2
Duration                                 : 1 h 22 min
Bit rate                                 : 85.8 kb/s
Channel(s)                               : 2 channels
Channel positions                        : Front: L R
Sampling rate                            : 48.0 kHz
Frame rate                               : 46.875 FPS (1024 SPF)
Compression mode                         : Lossy
Delay relative to video                  : 9 ms
Stream size                              : 50.5 MiB (6%)
Title                                    : English
Default                                  : No
Forced                                   : No

Audio #2
ID                                       : 4
Format                                   : MPEG Audio
Format version                           : Version 1
Format profile                           : Layer 3
Format settings                          : Joint stereo / MS Stereo
Codec ID                                 : A_MPEG/L3
Codec ID/Hint                            : MP3
Duration                                 : 1 h 22 min
Bit rate mode                            : Variable
Bit rate                                 : 128 kb/s
Channel(s)                               : 2 channels
Sampling rate                            : 44.1 kHz
Frame rate                               : 38.281 FPS (1152 SPF)
Compression mode                         : Lossy
Stream size                              : 77.6 MiB (9%)
Title                                    : Greek
Writing library                          : LAME3.90.
Encoding settings                        : -m j -V 4 -q 2 -lowpass 17.6 --abr 128
Default                                  : Yes
Forced                                   : No

Text #1
ID                                       : 3
Format                                   : UTF-8
Codec ID                                 : S_TEXT/UTF8
Codec ID/Info                            : UTF-8 Plain Text
Duration                                 : 1 h 21 min
Bit rate                                 : 65 b/s
Count of elements                        : 1218
Stream size                              : 39.0 KiB (0%)
Title                                    : English[CC]
Default                                  : No
Forced                                   : No

Text #2
ID                                       : 5
Format                                   : UTF-8
Codec ID                                 : S_TEXT/UTF8
Codec ID/Info                            : UTF-8 Plain Text
Duration                                 : 1 h 18 min
Bit rate                                 : 96 b/s
Count of elements                        : 992
Stream size                              : 55.6 KiB (0%)
Title                                    : Greek
Default                                  : No
Forced                                   : No

Ηθοποιοί:
Live-Action:
Robbie Amell
Kate Melton
Hayley Kiyoko
Nick Palatas
Frank Welker
Ted McGinley
Richard Moll
Marion Ross
Beverly Sanders

Μεταγλώττιση:
Σταύρος Σιούλης
Κατερίνα Γκίργκις
Υρώ Μιχαλακάκου
Χρίστος Θάνος
Γιάννης Στεφόπουλος
Θανάσης Κουρλαμπάς

Συμμετέχουν δύο ή τρεις ηθοποιοί ακόμη, που δεν τους αναγνωρίζω.



Bonus:

Ανέβασα και την HDTV έκδοση της ταινίας γιατί, όπως παρατήρησα, είχε μερικές διαφορετικές σκηνές. Δεν γνωρίζω τον αρχικό uploader. Οι υπότιτλοι είναι του F.B.B! οι πρωτότυποι, μιας και για αυτή την έκδοση είχαν συγχρονιστεί αρχικά. Επειδή ο ήχος είναι διαφορετικός από το βίντεο και ο συγχρονισμός θα ήταν εξαιρετικά δύσκολος, η HDTV έκδοση δεν έχει Ελληνικό ήχο.

Thumbnails:
Info:
General
Unique ID                                : 124363217387665575755262996082974889745 (0x5D8F7C03EA028D9BA1AD7CA92D559711)
Complete name                            : F:\WB\Scooby-Doo\Scooby-Doo Live Action Movies\TV Films\Scooby.Doo.Curse.of.the.Lake.Monster.2010.HDTV.360p.x264.mkv
Format                                   : Matroska
Format version                           : Version 4 / Version 2
File size                                : 369 MiB
Duration                                 : 1 h 18 min
Overall bit rate                         : 656 kb/s
Encoded date                             : UTC 2018-04-21 16:42:30
Writing application                      : mkvmerge v22.0.0 ('At The End Of The World') 64-bit
Writing library                          : libebml v1.3.5 + libmatroska v1.4.8

Video
ID                                       : 1
Format                                   : AVC
Format/Info                              : Advanced Video Codec
Format profile                           : High@L3
Format settings                          : CABAC / 4 Ref Frames
Format settings, CABAC                   : Yes
Format settings, ReFrames                : 4 frames
Codec ID                                 : V_MPEG4/ISO/AVC
Duration                                 : 1 h 18 min
Bit rate                                 : 526 kb/s
Width                                    : 640 pixels
Height                                   : 360 pixels
Display aspect ratio                     : 16:9
Frame rate mode                          : Constant
Frame rate                               : 23.976 (24000/1001) FPS
Color space                              : YUV
Chroma subsampling                       : 4:2:0
Bit depth                                : 8 bits
Scan type                                : Progressive
Bits/(Pixel*Frame)                       : 0.095
Stream size                              : 296 MiB (80%)
Writing library                          : x264 core 146 r109 121396c
Encoding settings                        : cabac=1 / ref=3 / deblock=1:0:0 / analyse=0x3:0x113 / me=hex / subme=7 / psy=1 / psy_rd=1.00:0.00 / mixed_ref=1 / me_range=16 / chroma_me=1 / trellis=1 / 8x8dct=1 / cqm=0 / deadzone=21,11 / fast_pskip=1 / chroma_qp_offset=-2 / threads=12 / lookahead_threads=2 / sliced_threads=0 / nr=0 / decimate=1 / interlaced=0 / bluray_compat=0 / constrained_intra=0 / bframes=3 / b_pyramid=2 / b_adapt=1 / b_bias=0 / direct=1 / weightb=1 / open_gop=0 / weightp=2 / keyint=250 / keyint_min=23 / scenecut=40 / intra_refresh=0 / rc_lookahead=40 / rc=crf / mbtree=1 / crf=22.0 / qcomp=0.60 / qpmin=0 / qpmax=69 / qpstep=4 / ip_ratio=1.40 / aq=1:1.00
Default                                  : Yes
Forced                                   : No

Audio
ID                                       : 2
Format                                   : AAC
Format/Info                              : Advanced Audio Codec
Format profile                           : LC
Codec ID                                 : A_AAC-2
Duration                                 : 1 h 18 min
Bit rate                                 : 128 kb/s
Channel(s)                               : 2 channels
Channel positions                        : Front: L R
Sampling rate                            : 44.1 kHz
Frame rate                               : 43.066 FPS (1024 SPF)
Compression mode                         : Lossy
Delay relative to video                  : -13 ms
Stream size                              : 72.0 MiB (19%)
Language                                 : English
Default                                  : Yes
Forced                                   : No

Text
ID                                       : 3
Format                                   : UTF-8
Codec ID                                 : S_TEXT/UTF8
Codec ID/Info                            : UTF-8 Plain Text
Duration                                 : 1 h 18 min
Bit rate                                 : 97 b/s
Count of elements                        : 1008
Stream size                              : 56.4 KiB (0%)
Title                                    : Greek
Default                                  : Yes
Forced                                   : No


Για να δείτε τα links πρέπει να κάνετε σχόλιο

Το project αυτό είναι μόνο για το TeenSpirit,
και θα παρακαλούσα να μην ανεβούν αυτές οι εκδόσεις των ταινιών πουθενά αλλού.



Έχει επεξεργασθεί από τον/την evstav στις Δευ Απρ 23, 2018 12:58 am, 2 φορές συνολικά

Μοιραστείτε αυτή τη δημοσίευση στο:diggdeliciousredditstumbleuponslashdotyahoogooglelive

avatar

Δημοσίευση Την / Το Κυρ Απρ 22, 2018 9:24 pm από evstav

Ανέβηκε η πρώτη ταινία! Εκρέμμει μόνο το re-upload της τελευταίας!

avatar

Δημοσίευση Την / Το Δευ Απρ 23, 2018 12:59 am από evstav

Ολοκληρωμένο Project!

Δημοσίευση Την / Το Δευ Απρ 23, 2018 9:35 pm από SD2

Thanks

avatar

Δημοσίευση Την / Το Παρ Απρ 27, 2018 2:41 am από smashyoshi

thanks

avatar

Δημοσίευση Την / Το Παρ Απρ 27, 2018 6:08 pm από alexvet

THANKS A LOT

avatar

Δημοσίευση Την / Το Κυρ Μαϊος 13, 2018 9:59 am από troktiko

thanks

ευχαριστω!

Επισκόπηση προηγούμενης Θ.Ενότητας Επισκόπηση επόμενης Θ.Ενότητας Επιστροφή στην κορυφή Μήνυμα [Σελίδα 1 από 1]

Δικαιώματα σας στην κατηγορία αυτή
Δεν μπορείτε να απαντήσετε στα Θέματα αυτής της Δ.Συζήτησης