Teen Spirit

Ένα φόρουμ αποκλειστικά για νεανικές σειρές στα ελληνικά!


Μη Συνδεδεμενος Παρακαλώ συνδεθείτε ή εγγραφείτε

Status Update (2018) WEBRip 720p

Επισκόπηση προηγούμενης Θ.Ενότητας Επισκόπηση επόμενης Θ.Ενότητας Πήγαινε κάτω Μήνυμα [Σελίδα 1 από 1]

avatar

Santo


Ultra Member
Ultra Member

Status Update



Περίληψη:
Ο Κάιλ (Ross Lynch) μετά από έναν καυγά στο καινούργιο του σχολείο, παίρνει ένα καινούργιο κινητό από έναν περίεργο τύπο, αφού το παλιό του έσπασε. Αυτό το  κινητό όμως περιέχει μία εφαρμογή που ότι γράφεις σε αυτή πραγματοποιείται. Ο Κάιλ με την βοήθεια αυτής της εφαρμογής θα γίνει τραγουδιστής, παίκτης του Χόκεϊ, φήμη, δόξα. Αλλά θα τα χρειάζεται στα αλήθεια όλα αυτά;

Screenshots:


Χαρακτηριστικά:


General
Format                         : MPEG-4
Format profile                 : Base Media
Codec ID                       : isom (isom/iso2/avc1/mp41)
File size                      : 902 MiB
Duration                       : 1 h 46 min
Overall bit rate               : 1 186 kb/s
Writing application            : Lavf58.9.100

Video
ID                             : 1
Format                         : AVC
Format/Info                    : Advanced Video Codec
Format profile                 : High@L4.1
Format settings, CABAC         : Yes
Format settings, RefFrames     : 4 frames
Codec ID                       : avc1
Codec ID/Info                  : Advanced Video Coding
Duration                       : 1 h 46 min
Bit rate                       : 1 050 kb/s
Width                          : 1 280 pixels
Height                         : 534 pixels
Display aspect ratio           : 2.40:1
Original display aspect ratio  : 2.40:1
Frame rate mode                : Constant
Frame rate                     : 23.976 (24000/1001) FPS
Color space                    : YUV
Chroma subsampling             : 4:2:0
Bit depth                      : 8 bits
Scan type                      : Progressive
Bits/(Pixel*Frame)             : 0.064
Stream size                    : 799 MiB (89%)
Writing library                : x264 core 155
Encoding settings              : cabac=1 / ref=4 / deblock=1👎-1 / analyse=0x3:0x133 / me=umh / subme=9 / psy=1 / psy_rd=1.00:0.15 / mixed_ref=1 / me_range=24 / chroma_me=1 / trellis=2 / 8x8dct=1 / cqm=0 / deadzone=21,11 / fast_pskip=0 / chroma_qp_offset=-3 / threads=17 / lookahead_threads=1 / sliced_threads=0 / nr=0 / decimate=1 / interlaced=0 / bluray_compat=0 / constrained_intra=0 / bframes=3 / b_pyramid=2 / b_adapt=2 / b_bias=0 / direct=3 / weightb=1 / open_gop=0 / weightp=2 / keyint=250 / keyint_min=23 / scenecut=40 / intra_refresh=0 / rc_lookahead=60 / rc=2pass / mbtree=1 / bitrate=1050 / ratetol=1.0 / qcomp=0.60 / qpmin=0 / qpmax=69 / qpstep=4 / cplxblur=20.0 / qblur=0.5 / vbv_maxrate=31250 / vbv_bufsize=31250 / nal_hrd=none / filler=0 / ip_ratio=1.40 / aq=1:1.00

Audio
ID                             : 2
Format                         : AAC
Format/Info                    : Advanced Audio Codec
Format profile                 : LC
Codec ID                       : 40
Duration                       : 1 h 46 min
Duration_LastFrame             : -11 ms
Bit rate mode                  : Constant
Bit rate                       : 132 kb/s
Channel(s)                     : 2 channels
Channel positions              : Front: L R
Sampling rate                  : 48.0 kHz
Frame rate                     : 46.875 FPS (1024 SPF)
Compression mode               : Lossy
Stream size                    : 99.2 MiB (11%)
Default                        : Yes
Alternate group                : 1

Υπότιτλοι:
Οι υπότιτλοι δημιουργήθηκαν και επιμελήθηκαν από εμένα. Είναι εξωτερικοί.

Κωδικός: Santo_for_Teen_Spirit




Πρέπει να κάνετε ένα σχόλιο για να δείτε το link.
ΚΑΛΗ ΘΕΑΣΗ  Very Happy

Αποκλειστικά για το Teen Spirit!



Έχει επεξεργασθεί από τον/την Santo στις Πεμ Αυγ 16, 2018 2:33 pm, 1 φορά

Μοιραστείτε αυτή τη δημοσίευση στο:diggdeliciousredditstumbleuponslashdotyahoogooglelive

avatar

Δημοσίευση Την / Το Πεμ Ιουλ 26, 2018 5:26 pm από lef0

Ευχαριστουμε! Very Happy

avatar

Δημοσίευση Την / Το Τρι Ιουλ 31, 2018 11:14 am από AUSTIN B.

thx

Δημοσίευση Την / Το Σαβ Αυγ 04, 2018 7:40 pm από TB87

ευχαριστω!

avatar

Δημοσίευση Την / Το Τετ Αυγ 15, 2018 11:22 pm από Andria<3

!!!!!!!

avatar

Δημοσίευση Την / Το Πεμ Αυγ 16, 2018 1:18 am από Andria<3

ποιος ειναι ο κωδικος για να μπορεσουμε να δουμε την ταινια???

avatar

Δημοσίευση Την / Το Πεμ Αυγ 16, 2018 2:35 pm από Santo

[Πρέπει να είστε εγγεγραμμένοι και συνδεδεμένοι για να δείτε αυτόν το σύνδεσμο.] έγραψε:ποιος ειναι ο κωδικος για να μπορεσουμε να δουμε την ταινια???

Τον πρόσθεσα στο post. Συγγνώμη για την παράληψη. Very Happy

avatar

Δημοσίευση Την / Το Κυρ Αυγ 26, 2018 2:39 pm από michalis95

thnx

Δημοσίευση Την / Το Κυρ Σεπ 09, 2018 11:53 am από disney12

Very Happy

avatar

Δημοσίευση Την / Το Κυρ Οκτ 07, 2018 1:17 am από matadorGR

Επισκόπηση προηγούμενης Θ.Ενότητας Επισκόπηση επόμενης Θ.Ενότητας Επιστροφή στην κορυφή Μήνυμα [Σελίδα 1 από 1]

Δικαιώματα σας στην κατηγορία αυτή
Δεν μπορείτε να απαντήσετε στα Θέματα αυτής της Δ.Συζήτησης