Teen Spirit

Ένα φόρουμ αποκλειστικά για νεανικές σειρές στα ελληνικά!


Μη Συνδεδεμενος Παρακαλώ συνδεθείτε ή εγγραφείτε

[MEGA] Henry Danger DTVRip (2014)

Επισκόπηση προηγούμενης Θ.Ενότητας Επισκόπηση επόμενης Θ.Ενότητας Πήγαινε κάτω Μήνυμα [Σελίδα 1 από 1]

avatar

Tsaklas


Admin
Admin
http://teenspirit.forumgreek.com

Προστέθηκε το επεισόδιο 3!

Ο 13χρονος Henry Hart αναλαμβάνει μία part time δουλειά ως Kid Danger, το δεξί χέρι του υπερήρωα Captain Man. Δίνοντας την υπόσχεση ότι θα κρατήσει τη νέα του ταυτότητα μυστική, ο Henry πρέπει να ζήσει τη διπλή ζωή, εξισορροπώντας τις προκλήσεις του σχολείου με τις τρελές περιπέτειες ενός μαχητή του εγκλήματος.

Η νέα σειρά του Nickelodeon ξεκίνησε από το Σάββατο 25/4. Έχουν προβληθεί τα πρώτα 12 επεισόδια, θα μπουν όλα σταδιακά. Προέρχονται από δικές μου ψηφιακές εγγραφές μέσω της Digea.

[Πρέπει να είστε εγγεγραμμένοι και συνδεδεμένοι για να δείτε αυτόν το σύνδεσμο.]

Χαρακτηριστικά:
General
Complete name                    : C:\Users\Tsaklas\Desktop\Henry Danger S01e01 The Danger Begins (part 1)-1.mp4
Format                           : MPEG-4
Format profile                   : Base Media / Version 2
Codec ID                         : mp42
File size                        : 202 MiB
Duration                         : 22mn 30s
Overall bit rate                 : 1 255 Kbps
Writing application              : HandBrake 0.10.1 2015030800

Video
ID                               : 1
Format                           : AVC
Format/Info                      : Advanced Video Codec
Format profile                   : Main@L4.0
Format settings, CABAC           : Yes
Format settings, ReFrames        : 4 frames
Format settings, GOP             : M=1, N=42
Codec ID                         : avc1
Codec ID/Info                    : Advanced Video Coding
Duration                         : 22mn 30s
Bit rate mode                    : Variable
Bit rate                         : 1 088 Kbps
Width                            : 720 pixels
Height                           : 576 pixels
Display aspect ratio             : 16:9
Original display aspect ratio    : 16:9
Frame rate mode                  : Variable
Frame rate                       : 25.000 fps
Minimum frame rate               : 5.990 fps
Maximum frame rate               : 25.000 fps
Standard                         : PAL
Color space                      : YUV
Chroma subsampling               : 4:2:0
Bit depth                        : 8 bits
Scan type                        : Progressive
Bits/(Pixel*Frame)               : 0.105
Stream size                      : 175 MiB (87%)
Writing library                  : x264 core 142 r2479 dd79a61
Encoding settings                : cabac=1 / ref=1 / deblock=1:0:0 / analyse=0x1:0x111 / me=hex / subme=2 / psy=1 / psy_rd=1.00:0.00 / mixed_ref=0 / me_range=16 / chroma_me=1 / trellis=0 / 8x8dct=0 / cqm=0 / deadzone=21,11 / fast_pskip=1 / chroma_qp_offset=0 / threads=3 / lookahead_threads=1 / sliced_threads=0 / nr=0 / decimate=1 / interlaced=0 / bluray_compat=0 / constrained_intra=0 / bframes=3 / b_pyramid=2 / b_adapt=1 / b_bias=0 / direct=1 / weightb=1 / open_gop=0 / weightp=1 / keyint=250 / keyint_min=25 / scenecut=40 / intra_refresh=0 / rc_lookahead=10 / rc=crf / mbtree=1 / crf=25.0 / qcomp=0.60 / qpmin=0 / qpmax=69 / qpstep=4 / vbv_maxrate=20000 / vbv_bufsize=25000 / crf_max=0.0 / nal_hrd=none / filler=0 / ip_ratio=1.40 / aq=1:1.00
Color primaries                  : BT.470-6 System B, BT.470-6 System G, BT.601-6 625, BT.1358 625, BT.1700 625 PAL, BT.1700 625 SECAM
Transfer characteristics         : BT.709-5, BT.1361
Matrix coefficients              : BT.601-6 525, BT.1358 525, BT.1700 NTSC, SMPTE 170M

Audio
ID                               : 2
Format                           : AAC
Format/Info                      : Advanced Audio Codec
Format profile                   : LC
Codec ID                         : 40
Duration                         : 22mn 30s
Bit rate mode                    : Variable
Bit rate                         : 161 Kbps
Channel(s)                       : 2 channels
Channel positions                : Front: L R
Sampling rate                    : 48.0 KHz
Compression mode                 : Lossy
Stream size                      : 25.8 MiB (13%)
Title                            : Stereo
Language                         : Greek
Thumbnails:
Πατήστε πάνω για μεγέθυνση
[Πρέπει να είστε εγγεγραμμένοι και συνδεδεμένοι για να δείτε αυτόν το σύνδεσμο.]


Επεισόδιο 1 - The Danger Begins (Μέρος 1ο)


Επεισόδιο 1,5 - The Danger Begins (Μέρος 2ο)


Επεισόδιο 2 - Mo' Dangers, Mo' Problems


Επεισόδιο 3 - The Secret Gets Out


Ανέβηκαν: 04/13

Αποκλειστικά για το TeenSpirit!



Έχει επεξεργασθεί από τον/την Tsaklas στις Τρι Οκτ 27, 2015 11:19 am, 8 φορές συνολικά

Μοιραστείτε αυτή τη δημοσίευση στο:Excite BookmarksDiggRedditDel.icio.usGoogleLiveSlashdotNetscapeTechnoratiStumbleUponNewsvineFurlYahooSmarking

avatar

Δημοσίευση Την / Το Τρι Απρ 28, 2015 10:35 pm από Alex

Ωραίο Tsaklas, μπράβο! Smile

avatar

Δημοσίευση Την / Το Τρι Μαϊος 05, 2015 9:03 am από Kim Possible

[Πρέπει να είστε εγγεγραμμένοι και συνδεδεμένοι για να δείτε αυτόν το σύνδεσμο.] Έχει τίποτα ενδιαφέρον όπως The Thundermans , The Haunted Hathaways ή The Troop για να το κατεβάσω ευχαριστώ

avatar

Δημοσίευση Την / Το Τρι Μαϊος 05, 2015 5:59 pm από Tsaklas

Τι εννοείς;

avatar

Δημοσίευση Την / Το Τρι Μαϊος 05, 2015 10:45 pm από Kim Possible

Κυμαίνεται η σειρά πάνω σε αυτές τις τρεις σειρές το χιούμορ η πλοκή κάτι αντίστοιχο

avatar

Δημοσίευση Την / Το Τετ Μαϊος 06, 2015 6:27 pm από Tsaklas

Μοιάζει λίγο με The Troop και Thundermans

Δημοσίευση Την / Το Παρ Μαϊος 29, 2015 7:40 am από TB87

ευχαριστω

Δημοσίευση Την / Το Παρ Μαϊος 29, 2015 6:19 pm από panagiotis94

Δημοσίευση Την / Το Τετ Ιουν 10, 2015 7:54 pm από ap-99

thanks

Δημοσίευση Την / Το Πεμ Ιουν 11, 2015 5:25 pm από panagiotis94

avatar

Δημοσίευση Την / Το Τετ Ιουν 17, 2015 11:48 am από LazarosNickelodeon

Δημοσίευση Την / Το Κυρ Αυγ 02, 2015 8:36 pm από DRAKE AND JOSH FAN!

avatar

Δημοσίευση Την / Το Δευ Οκτ 26, 2015 4:21 pm από Tsaklas

+ 01.5, 02

avatar

Δημοσίευση Την / Το Τρι Οκτ 27, 2015 11:19 am από Tsaklas

+ Επεισόδιο 3

avatar

Δημοσίευση Την / Το Τετ Μαρ 30, 2016 7:42 am από Jimis Wolf

Thnks

avatar

Δημοσίευση Την / Το Κυρ Μαϊος 29, 2016 10:32 pm από jhdr83

ευχαριστω

avatar

Δημοσίευση Την / Το Πεμ Ιουλ 07, 2016 10:08 pm από ioannis95

αρκετα καλη σειρα για να περνας τα απογευματα, ευχαριστω. επαιξε ολη την 1η σαιζον;

avatar

Δημοσίευση Την / Το Πεμ Ιουλ 07, 2016 10:12 pm από Tsaklas

Ναι έδειξε και τα 26 επεισόδια, πρέπει να μου λείπει ένα.

avatar

Δημοσίευση Την / Το Παρ Δεκ 30, 2016 11:24 am από teliosmetonma

ty

Επισκόπηση προηγούμενης Θ.Ενότητας Επισκόπηση επόμενης Θ.Ενότητας Επιστροφή στην κορυφή Μήνυμα [Σελίδα 1 από 1]

Δικαιώματα σας στην κατηγορία αυτή
Δεν μπορείτε να απαντήσετε στα Θέματα αυτής της Δ.Συζήτησης